<?xml version="1.0" standalone="no"?>
<!DOCTYPE svg PUBLIC "-//W3C//DTD SVG 1.1//EN" "http://www.w3.org/Graphics/SVG/1.1/DTD/svg11.dtd" >
<svg>
<metadata>
Created by FontForge 20090622 at Mon Sep 30 14:51:18 2019
 By deploy user
</metadata>
<defs>
<font id="LEDDotMatrixRegular" horiz-adv-x="1320" >
  <font-face 
    font-family="LED Dot-Matrix"
    font-weight="400"
    font-stretch="normal"
    units-per-em="2048"
    panose-1="0 0 0 0 0 0 0 0 0 0"
    ascent="1638"
    descent="-410"
    x-height="1434"
    cap-height="1434"
    bbox="0 -205 2191 1648"
    underline-thickness="102"
    underline-position="-612"
    unicode-range="U+000A-U+25FC"
  />
<missing-glyph horiz-adv-x="748" 
d="M68 0v1365h544v-1365h-544zM136 68h408v1229h-408v-1229z" />
    <glyph glyph-name=".notdef" horiz-adv-x="748" 
d="M68 0v1365h544v-1365h-544zM136 68h408v1229h-408v-1229z" />
    <glyph glyph-name="glyph1" horiz-adv-x="0" 
 />
    <glyph glyph-name="glyph1" horiz-adv-x="0" 
 />
    <glyph glyph-name="glyph2" horiz-adv-x="682" 
 />
    <glyph glyph-name="uni000A" unicode="&#xa;" horiz-adv-x="286" 
 />
    <glyph glyph-name="uni000D" unicode="&#xd;" horiz-adv-x="286" 
 />
    <glyph glyph-name="space" unicode=" " horiz-adv-x="897" 
 />
    <glyph glyph-name="exclam" unicode="!" horiz-adv-x="462" 
d="M143 87q0 36 26 62t62 26t61.5 -26t25.5 -62t-25.5 -61.5t-61.5 -25.5t-62 25.5t-26 61.5zM143 507q0 36 26 61.5t62 25.5t61.5 -25.5t25.5 -61.5t-25.5 -61.5t-61.5 -25.5t-62 25.5t-26 61.5zM143 717q0 36 26 61.5t62 25.5t61.5 -25.5t25.5 -61.5t-25.5 -61.5
t-61.5 -25.5t-62 25.5t-26 61.5zM143 927q0 36 26 61.5t62 25.5t61.5 -25.5t25.5 -61.5t-25.5 -62t-61.5 -26t-62 26t-26 62zM143 1136q0 36 26 62t62 26t61.5 -26t25.5 -62t-25.5 -61.5t-61.5 -25.5t-62 25.5t-26 61.5zM143 1346q0 36 26 62t62 26t61.5 -26t25.5 -62
t-25.5 -61.5t-61.5 -25.5t-62 25.5t-26 61.5z" />
    <glyph glyph-name="dollar" unicode="$" 
d="M143 302q0 36 26 61.5t62 25.5t61.5 -25.5t25.5 -61.5t-25.5 -61.5t-61.5 -25.5t-62 25.5t-26 61.5zM143 932q0 36 26 61.5t62 25.5t61.5 -25.5t25.5 -61.5t-25.5 -62t-61.5 -26t-62 26t-26 62zM143 1141q0 36 26 62t62 26t61.5 -26t25.5 -62t-25.5 -61.5t-61.5 -25.5
t-62 25.5t-26 61.5zM358 92q0 36 25.5 62t61.5 26t62 -26t26 -62t-26 -61.5t-62 -25.5t-61.5 25.5t-25.5 61.5zM358 722q0 36 25.5 61.5t61.5 25.5t62 -25.5t26 -61.5t-26 -61.5t-62 -25.5t-61.5 25.5t-25.5 61.5zM358 1351q0 36 25.5 62t61.5 26t62 -26t26 -62t-26 -61.5
t-62 -25.5t-61.5 25.5t-25.5 61.5zM573 92q0 36 25.5 62t61.5 26t61.5 -26t25.5 -62t-25.5 -61.5t-61.5 -25.5t-61.5 25.5t-25.5 61.5zM573 -118q0 36 25.5 62t61.5 26t61.5 -26t25.5 -62t-25.5 -61.5t-61.5 -25.5t-61.5 25.5t-25.5 61.5zM573 302q0 36 25.5 61.5t61.5 25.5
t61.5 -25.5t25.5 -61.5t-25.5 -61.5t-61.5 -25.5t-61.5 25.5t-25.5 61.5zM573 512q0 36 25.5 61.5t61.5 25.5t61.5 -25.5t25.5 -61.5t-25.5 -61.5t-61.5 -25.5t-61.5 25.5t-25.5 61.5zM573 722q0 36 25.5 61.5t61.5 25.5t61.5 -25.5t25.5 -61.5t-25.5 -61.5t-61.5 -25.5
t-61.5 25.5t-25.5 61.5zM573 932q0 36 25.5 61.5t61.5 25.5t61.5 -25.5t25.5 -61.5t-25.5 -62t-61.5 -26t-61.5 26t-25.5 62zM573 1141q0 36 25.5 62t61.5 26t61.5 -26t25.5 -62t-25.5 -61.5t-61.5 -25.5t-61.5 25.5t-25.5 61.5zM573 1351q0 36 25.5 62t61.5 26t61.5 -26
t25.5 -62t-25.5 -61.5t-61.5 -25.5t-61.5 25.5t-25.5 61.5zM573 1561q0 36 25.5 61.5t61.5 25.5t61.5 -25.5t25.5 -61.5t-25.5 -61.5t-61.5 -25.5t-61.5 25.5t-25.5 61.5zM788 92q0 36 25.5 62t61.5 26t61.5 -26t25.5 -62t-25.5 -61.5t-61.5 -25.5t-61.5 25.5t-25.5 61.5z
M788 722q0 36 25.5 61.5t61.5 25.5t61.5 -25.5t25.5 -61.5t-25.5 -61.5t-61.5 -25.5t-61.5 25.5t-25.5 61.5zM788 1351q0 36 25.5 62t61.5 26t61.5 -26t25.5 -62t-25.5 -61.5t-61.5 -25.5t-61.5 25.5t-25.5 61.5zM1002 302q0 36 26 61.5t62 25.5t61.5 -25.5t25.5 -61.5
t-25.5 -61.5t-61.5 -25.5t-62 25.5t-26 61.5zM1002 512q0 36 26 61.5t62 25.5t61.5 -25.5t25.5 -61.5t-25.5 -61.5t-61.5 -25.5t-62 25.5t-26 61.5zM1002 1141q0 36 26 62t62 26t61.5 -26t25.5 -62t-25.5 -61.5t-61.5 -25.5t-62 25.5t-26 61.5z" />
    <glyph glyph-name="percent" unicode="%" 
d="M143 87q0 36 26 62t62 26t61.5 -26t25.5 -62t-25.5 -61.5t-61.5 -25.5t-62 25.5t-26 61.5zM143 297q0 36 26 61.5t62 25.5t61.5 -25.5t25.5 -61.5t-25.5 -61.5t-61.5 -25.5t-62 25.5t-26 61.5zM143 1136q0 36 26 62t62 26t61.5 -26t25.5 -62t-25.5 -61.5t-61.5 -25.5
t-62 25.5t-26 61.5zM143 1346q0 36 26 62t62 26t61.5 -26t25.5 -62t-25.5 -61.5t-61.5 -25.5t-62 25.5t-26 61.5zM358 507q0 36 25.5 61.5t61.5 25.5t62 -25.5t26 -61.5t-26 -61.5t-62 -25.5t-61.5 25.5t-25.5 61.5zM358 1136q0 36 25.5 62t61.5 26t62 -26t26 -62t-26 -61.5
t-62 -25.5t-61.5 25.5t-25.5 61.5zM358 1346q0 36 25.5 62t61.5 26t62 -26t26 -62t-26 -61.5t-62 -25.5t-61.5 25.5t-25.5 61.5zM573 717q0 36 25.5 61.5t61.5 25.5t61.5 -25.5t25.5 -61.5t-25.5 -61.5t-61.5 -25.5t-61.5 25.5t-25.5 61.5zM788 87q0 36 25.5 62t61.5 26
t61.5 -26t25.5 -62t-25.5 -61.5t-61.5 -25.5t-61.5 25.5t-25.5 61.5zM788 297q0 36 25.5 61.5t61.5 25.5t61.5 -25.5t25.5 -61.5t-25.5 -61.5t-61.5 -25.5t-61.5 25.5t-25.5 61.5zM788 927q0 36 25.5 61.5t61.5 25.5t61.5 -25.5t25.5 -61.5t-25.5 -62t-61.5 -26t-61.5 26
t-25.5 62zM1002 87q0 36 26 62t62 26t61.5 -26t25.5 -62t-25.5 -61.5t-61.5 -25.5t-62 25.5t-26 61.5zM1002 297q0 36 26 61.5t62 25.5t61.5 -25.5t25.5 -61.5t-25.5 -61.5t-61.5 -25.5t-62 25.5t-26 61.5zM1002 1136q0 36 26 62t62 26t61.5 -26t25.5 -62t-25.5 -61.5
t-61.5 -25.5t-62 25.5t-26 61.5zM1002 1346q0 36 26 62t62 26t61.5 -26t25.5 -62t-25.5 -61.5t-61.5 -25.5t-62 25.5t-26 61.5z" />
    <glyph glyph-name="plus" unicode="+" horiz-adv-x="1300" 
d="M144 739q-6 36 15.5 65t57.5 35t65 -15t35 -57t-15 -65t-57 -35t-65.5 15t-35.5 57zM354 739q-6 36 15 65t57 35t65.5 -15t35.5 -57t-15.5 -65t-57.5 -35t-65 15t-35 57zM564 319q-6 36 15 65t57 35t65 -15t35 -57t-15 -65t-57 -35t-65 15t-35 57zM564 529q-6 36 15 65
t57 35t65 -15t35 -57t-15 -65t-57 -35t-65 15t-35 57zM564 739q-6 36 15 65t57 35t65 -15t35 -57t-15 -65t-57 -35t-65 15t-35 57zM564 949q-6 36 15 65t57 35t65 -15t35 -57t-15 -65.5t-57 -35.5t-65 15.5t-35 57.5zM564 1158q-6 36 15 65.5t57 35.5t65 -15.5t35 -57.5
t-15 -65t-57 -35t-65 15t-35 57zM774 739q-6 36 15 65t57 35t65 -15t35 -57t-15 -65t-57 -35t-65 15t-35 57zM984 739q-6 36 15 65t57 35t65 -15t35 -57t-15 -65t-57 -35t-65 15t-35 57z" />
    <glyph glyph-name="comma" unicode="," horiz-adv-x="671" 
d="M143 -118q0 36 26 62t62 26t61.5 -26t25.5 -62t-25.5 -61.5t-61.5 -25.5t-62 25.5t-26 61.5zM353 92q0 36 25.5 62t61.5 26t62 -26t26 -62t-26 -61.5t-62 -25.5t-61.5 25.5t-25.5 61.5z" />
    <glyph glyph-name="hyphen" unicode="-" horiz-adv-x="1300" 
d="M143 753q0 36 26 61.5t62 25.5t61.5 -25.5t25.5 -61.5t-25.5 -61.5t-61.5 -25.5t-62 25.5t-26 61.5zM353 753q0 36 25.5 61.5t61.5 25.5t62 -25.5t26 -61.5t-26 -61.5t-62 -25.5t-61.5 25.5t-25.5 61.5zM563 753q0 36 25.5 61.5t61.5 25.5t62 -25.5t26 -61.5t-26 -61.5
t-62 -25.5t-61.5 25.5t-25.5 61.5zM773 753q0 36 25.5 61.5t61.5 25.5t61.5 -25.5t25.5 -61.5t-25.5 -61.5t-61.5 -25.5t-61.5 25.5t-25.5 61.5zM983 753q0 36 25.5 61.5t61.5 25.5t61.5 -25.5t25.5 -61.5t-25.5 -61.5t-61.5 -25.5t-61.5 25.5t-25.5 61.5z" />
    <glyph glyph-name="period" unicode="." horiz-adv-x="460" 
d="M143 87q0 36 26 62t62 26t61.5 -26t25.5 -62t-25.5 -61.5t-61.5 -25.5t-62 25.5t-26 61.5z" />
    <glyph glyph-name="zero" unicode="0" 
d="M143 297q0 36 26 61.5t62 25.5t61.5 -25.5t25.5 -61.5t-25.5 -61.5t-61.5 -25.5t-62 25.5t-26 61.5zM143 507q0 36 26 61.5t62 25.5t61.5 -25.5t25.5 -61.5t-25.5 -61.5t-61.5 -25.5t-62 25.5t-26 61.5zM143 717q0 36 26 61.5t62 25.5t61.5 -25.5t25.5 -61.5t-25.5 -61.5
t-61.5 -25.5t-62 25.5t-26 61.5zM143 927q0 36 26 61.5t62 25.5t61.5 -25.5t25.5 -61.5t-25.5 -62t-61.5 -26t-62 26t-26 62zM143 1136q0 36 26 62t62 26t61.5 -26t25.5 -62t-25.5 -61.5t-61.5 -25.5t-62 25.5t-26 61.5zM358 87q0 36 25.5 62t61.5 26t62 -26t26 -62
t-26 -61.5t-62 -25.5t-61.5 25.5t-25.5 61.5zM358 507q0 36 25.5 61.5t61.5 25.5t62 -25.5t26 -61.5t-26 -61.5t-62 -25.5t-61.5 25.5t-25.5 61.5zM358 1346q0 36 25.5 62t61.5 26t62 -26t26 -62t-26 -61.5t-62 -25.5t-61.5 25.5t-25.5 61.5zM573 87q0 36 25.5 62t61.5 26
t61.5 -26t25.5 -62t-25.5 -61.5t-61.5 -25.5t-61.5 25.5t-25.5 61.5zM573 717q0 36 25.5 61.5t61.5 25.5t61.5 -25.5t25.5 -61.5t-25.5 -61.5t-61.5 -25.5t-61.5 25.5t-25.5 61.5zM573 1346q0 36 25.5 62t61.5 26t61.5 -26t25.5 -62t-25.5 -61.5t-61.5 -25.5t-61.5 25.5
t-25.5 61.5zM788 87q0 36 25.5 62t61.5 26t61.5 -26t25.5 -62t-25.5 -61.5t-61.5 -25.5t-61.5 25.5t-25.5 61.5zM788 927q0 36 25.5 61.5t61.5 25.5t61.5 -25.5t25.5 -61.5t-25.5 -62t-61.5 -26t-61.5 26t-25.5 62zM788 1346q0 36 25.5 62t61.5 26t61.5 -26t25.5 -62
t-25.5 -61.5t-61.5 -25.5t-61.5 25.5t-25.5 61.5zM1002 297q0 36 26 61.5t62 25.5t61.5 -25.5t25.5 -61.5t-25.5 -61.5t-61.5 -25.5t-62 25.5t-26 61.5zM1002 507q0 36 26 61.5t62 25.5t61.5 -25.5t25.5 -61.5t-25.5 -61.5t-61.5 -25.5t-62 25.5t-26 61.5zM1002 717
q0 36 26 61.5t62 25.5t61.5 -25.5t25.5 -61.5t-25.5 -61.5t-61.5 -25.5t-62 25.5t-26 61.5zM1002 927q0 36 26 61.5t62 25.5t61.5 -25.5t25.5 -61.5t-25.5 -62t-61.5 -26t-62 26t-26 62zM1002 1136q0 36 26 62t62 26t61.5 -26t25.5 -62t-25.5 -61.5t-61.5 -25.5t-62 25.5
t-26 61.5z" />
    <glyph glyph-name="one" unicode="1" horiz-adv-x="890" 
d="M143 87q0 36 26 62t62 26t61.5 -26t25.5 -62t-25.5 -61.5t-61.5 -25.5t-62 25.5t-26 61.5zM143 1136q0 36 26 62t62 26t61.5 -26t25.5 -62t-25.5 -61.5t-61.5 -25.5t-62 25.5t-26 61.5zM358 87q0 36 25.5 62t61.5 26t62 -26t26 -62t-26 -61.5t-62 -25.5t-61.5 25.5
t-25.5 61.5zM358 297q0 36 25.5 61.5t61.5 25.5t62 -25.5t26 -61.5t-26 -61.5t-62 -25.5t-61.5 25.5t-25.5 61.5zM358 507q0 36 25.5 61.5t61.5 25.5t62 -25.5t26 -61.5t-26 -61.5t-62 -25.5t-61.5 25.5t-25.5 61.5zM358 717q0 36 25.5 61.5t61.5 25.5t62 -25.5t26 -61.5
t-26 -61.5t-62 -25.5t-61.5 25.5t-25.5 61.5zM358 927q0 36 25.5 61.5t61.5 25.5t62 -25.5t26 -61.5t-26 -62t-62 -26t-61.5 26t-25.5 62zM358 1136q0 36 25.5 62t61.5 26t62 -26t26 -62t-26 -61.5t-62 -25.5t-61.5 25.5t-25.5 61.5zM358 1346q0 36 25.5 62t61.5 26t62 -26
t26 -62t-26 -61.5t-62 -25.5t-61.5 25.5t-25.5 61.5zM573 87q0 36 25.5 62t61.5 26t61.5 -26t25.5 -62t-25.5 -61.5t-61.5 -25.5t-61.5 25.5t-25.5 61.5z" />
    <glyph glyph-name="two" unicode="2" 
d="M143 87q0 36 26 62t62 26t61.5 -26t25.5 -62t-25.5 -61.5t-61.5 -25.5t-62 25.5t-26 61.5zM143 1136q0 36 26 62t62 26t61.5 -26t25.5 -62t-25.5 -61.5t-61.5 -25.5t-62 25.5t-26 61.5zM358 87q0 36 25.5 62t61.5 26t62 -26t26 -62t-26 -61.5t-62 -25.5t-61.5 25.5
t-25.5 61.5zM358 297q0 36 25.5 61.5t61.5 25.5t62 -25.5t26 -61.5t-26 -61.5t-62 -25.5t-61.5 25.5t-25.5 61.5zM358 1346q0 36 25.5 62t61.5 26t62 -26t26 -62t-26 -61.5t-62 -25.5t-61.5 25.5t-25.5 61.5zM573 87q0 36 25.5 62t61.5 26t61.5 -26t25.5 -62t-25.5 -61.5
t-61.5 -25.5t-61.5 25.5t-25.5 61.5zM573 507q0 36 25.5 61.5t61.5 25.5t61.5 -25.5t25.5 -61.5t-25.5 -61.5t-61.5 -25.5t-61.5 25.5t-25.5 61.5zM573 1346q0 36 25.5 62t61.5 26t61.5 -26t25.5 -62t-25.5 -61.5t-61.5 -25.5t-61.5 25.5t-25.5 61.5zM788 87q0 36 25.5 62
t61.5 26t61.5 -26t25.5 -62t-25.5 -61.5t-61.5 -25.5t-61.5 25.5t-25.5 61.5zM788 717q0 36 25.5 61.5t61.5 25.5t61.5 -25.5t25.5 -61.5t-25.5 -61.5t-61.5 -25.5t-61.5 25.5t-25.5 61.5zM788 1346q0 36 25.5 62t61.5 26t61.5 -26t25.5 -62t-25.5 -61.5t-61.5 -25.5
t-61.5 25.5t-25.5 61.5zM1002 87q0 36 26 62t62 26t61.5 -26t25.5 -62t-25.5 -61.5t-61.5 -25.5t-62 25.5t-26 61.5zM1002 927q0 36 26 61.5t62 25.5t61.5 -25.5t25.5 -61.5t-25.5 -62t-61.5 -26t-62 26t-26 62zM1002 1136q0 36 26 62t62 26t61.5 -26t25.5 -62t-25.5 -61.5
t-61.5 -25.5t-62 25.5t-26 61.5z" />
    <glyph glyph-name="three" unicode="3" 
d="M143 87q0 36 26 62t62 26t61.5 -26t25.5 -62t-25.5 -61.5t-61.5 -25.5t-62 25.5t-26 61.5zM143 1346q0 36 26 62t62 26t61.5 -26t25.5 -62t-25.5 -61.5t-61.5 -25.5t-62 25.5t-26 61.5zM358 87q0 36 25.5 62t61.5 26t62 -26t26 -62t-26 -61.5t-62 -25.5t-61.5 25.5
t-25.5 61.5zM358 717q0 36 25.5 61.5t61.5 25.5t62 -25.5t26 -61.5t-26 -61.5t-62 -25.5t-61.5 25.5t-25.5 61.5zM358 1346q0 36 25.5 62t61.5 26t62 -26t26 -62t-26 -61.5t-62 -25.5t-61.5 25.5t-25.5 61.5zM573 87q0 36 25.5 62t61.5 26t61.5 -26t25.5 -62t-25.5 -61.5
t-61.5 -25.5t-61.5 25.5t-25.5 61.5zM573 717q0 36 25.5 61.5t61.5 25.5t61.5 -25.5t25.5 -61.5t-25.5 -61.5t-61.5 -25.5t-61.5 25.5t-25.5 61.5zM573 1346q0 36 25.5 62t61.5 26t61.5 -26t25.5 -62t-25.5 -61.5t-61.5 -25.5t-61.5 25.5t-25.5 61.5zM788 87q0 36 25.5 62
t61.5 26t61.5 -26t25.5 -62t-25.5 -61.5t-61.5 -25.5t-61.5 25.5t-25.5 61.5zM788 717q0 36 25.5 61.5t61.5 25.5t61.5 -25.5t25.5 -61.5t-25.5 -61.5t-61.5 -25.5t-61.5 25.5t-25.5 61.5zM788 1346q0 36 25.5 62t61.5 26t61.5 -26t25.5 -62t-25.5 -61.5t-61.5 -25.5
t-61.5 25.5t-25.5 61.5zM1002 297q0 36 26 61.5t62 25.5t61.5 -25.5t25.5 -61.5t-25.5 -61.5t-61.5 -25.5t-62 25.5t-26 61.5zM1002 507q0 36 26 61.5t62 25.5t61.5 -25.5t25.5 -61.5t-25.5 -61.5t-61.5 -25.5t-62 25.5t-26 61.5zM1002 927q0 36 26 61.5t62 25.5t61.5 -25.5
t25.5 -61.5t-25.5 -62t-61.5 -26t-62 26t-26 62zM1002 1136q0 36 26 62t62 26t61.5 -26t25.5 -62t-25.5 -61.5t-61.5 -25.5t-62 25.5t-26 61.5z" />
    <glyph glyph-name="four" unicode="4" 
d="M143 717q0 36 26 61.5t62 25.5t61.5 -25.5t25.5 -61.5t-25.5 -61.5t-61.5 -25.5t-62 25.5t-26 61.5zM143 927q0 36 26 61.5t62 25.5t61.5 -25.5t25.5 -61.5t-25.5 -62t-61.5 -26t-62 26t-26 62zM143 1136q0 36 26 62t62 26t61.5 -26t25.5 -62t-25.5 -61.5t-61.5 -25.5
t-62 25.5t-26 61.5zM143 1346q0 36 26 62t62 26t61.5 -26t25.5 -62t-25.5 -61.5t-61.5 -25.5t-62 25.5t-26 61.5zM358 717q0 36 25.5 61.5t61.5 25.5t62 -25.5t26 -61.5t-26 -61.5t-62 -25.5t-61.5 25.5t-25.5 61.5zM573 717q0 36 25.5 61.5t61.5 25.5t61.5 -25.5
t25.5 -61.5t-25.5 -61.5t-61.5 -25.5t-61.5 25.5t-25.5 61.5zM788 717q0 36 25.5 61.5t61.5 25.5t61.5 -25.5t25.5 -61.5t-25.5 -61.5t-61.5 -25.5t-61.5 25.5t-25.5 61.5zM1002 87q0 36 26 62t62 26t61.5 -26t25.5 -62t-25.5 -61.5t-61.5 -25.5t-62 25.5t-26 61.5z
M1002 297q0 36 26 61.5t62 25.5t61.5 -25.5t25.5 -61.5t-25.5 -61.5t-61.5 -25.5t-62 25.5t-26 61.5zM1002 507q0 36 26 61.5t62 25.5t61.5 -25.5t25.5 -61.5t-25.5 -61.5t-61.5 -25.5t-62 25.5t-26 61.5zM1002 717q0 36 26 61.5t62 25.5t61.5 -25.5t25.5 -61.5t-25.5 -61.5
t-61.5 -25.5t-62 25.5t-26 61.5zM1002 927q0 36 26 61.5t62 25.5t61.5 -25.5t25.5 -61.5t-25.5 -62t-61.5 -26t-62 26t-26 62zM1002 1136q0 36 26 62t62 26t61.5 -26t25.5 -62t-25.5 -61.5t-61.5 -25.5t-62 25.5t-26 61.5zM1002 1346q0 36 26 62t62 26t61.5 -26t25.5 -62
t-25.5 -61.5t-61.5 -25.5t-62 25.5t-26 61.5z" />
    <glyph glyph-name="five" unicode="5" 
d="M143 87q0 36 26 62t62 26t61.5 -26t25.5 -62t-25.5 -61.5t-61.5 -25.5t-62 25.5t-26 61.5zM143 717q0 36 26 61.5t62 25.5t61.5 -25.5t25.5 -61.5t-25.5 -61.5t-61.5 -25.5t-62 25.5t-26 61.5zM143 927q0 36 26 61.5t62 25.5t61.5 -25.5t25.5 -61.5t-25.5 -62t-61.5 -26
t-62 26t-26 62zM143 1136q0 36 26 62t62 26t61.5 -26t25.5 -62t-25.5 -61.5t-61.5 -25.5t-62 25.5t-26 61.5zM143 1346q0 36 26 62t62 26t61.5 -26t25.5 -62t-25.5 -61.5t-61.5 -25.5t-62 25.5t-26 61.5zM358 87q0 36 25.5 62t61.5 26t62 -26t26 -62t-26 -61.5t-62 -25.5
t-61.5 25.5t-25.5 61.5zM358 717q0 36 25.5 61.5t61.5 25.5t62 -25.5t26 -61.5t-26 -61.5t-62 -25.5t-61.5 25.5t-25.5 61.5zM358 1346q0 36 25.5 62t61.5 26t62 -26t26 -62t-26 -61.5t-62 -25.5t-61.5 25.5t-25.5 61.5zM573 87q0 36 25.5 62t61.5 26t61.5 -26t25.5 -62
t-25.5 -61.5t-61.5 -25.5t-61.5 25.5t-25.5 61.5zM573 717q0 36 25.5 61.5t61.5 25.5t61.5 -25.5t25.5 -61.5t-25.5 -61.5t-61.5 -25.5t-61.5 25.5t-25.5 61.5zM573 1346q0 36 25.5 62t61.5 26t61.5 -26t25.5 -62t-25.5 -61.5t-61.5 -25.5t-61.5 25.5t-25.5 61.5zM788 87
q0 36 25.5 62t61.5 26t61.5 -26t25.5 -62t-25.5 -61.5t-61.5 -25.5t-61.5 25.5t-25.5 61.5zM788 717q0 36 25.5 61.5t61.5 25.5t61.5 -25.5t25.5 -61.5t-25.5 -61.5t-61.5 -25.5t-61.5 25.5t-25.5 61.5zM788 1346q0 36 25.5 62t61.5 26t61.5 -26t25.5 -62t-25.5 -61.5
t-61.5 -25.5t-61.5 25.5t-25.5 61.5zM1002 297q0 36 26 61.5t62 25.5t61.5 -25.5t25.5 -61.5t-25.5 -61.5t-61.5 -25.5t-62 25.5t-26 61.5zM1002 507q0 36 26 61.5t62 25.5t61.5 -25.5t25.5 -61.5t-25.5 -61.5t-61.5 -25.5t-62 25.5t-26 61.5zM1002 1346q0 36 26 62t62 26
t61.5 -26t25.5 -62t-25.5 -61.5t-61.5 -25.5t-62 25.5t-26 61.5z" />
    <glyph glyph-name="six" unicode="6" 
d="M143 297q0 36 26 61.5t62 25.5t61.5 -25.5t25.5 -61.5t-25.5 -61.5t-61.5 -25.5t-62 25.5t-26 61.5zM143 507q0 36 26 61.5t62 25.5t61.5 -25.5t25.5 -61.5t-25.5 -61.5t-61.5 -25.5t-62 25.5t-26 61.5zM143 717q0 36 26 61.5t62 25.5t61.5 -25.5t25.5 -61.5t-25.5 -61.5
t-61.5 -25.5t-62 25.5t-26 61.5zM143 927q0 36 26 61.5t62 25.5t61.5 -25.5t25.5 -61.5t-25.5 -62t-61.5 -26t-62 26t-26 62zM143 1136q0 36 26 62t62 26t61.5 -26t25.5 -62t-25.5 -61.5t-61.5 -25.5t-62 25.5t-26 61.5zM358 87q0 36 25.5 62t61.5 26t62 -26t26 -62
t-26 -61.5t-62 -25.5t-61.5 25.5t-25.5 61.5zM358 717q0 36 25.5 61.5t61.5 25.5t62 -25.5t26 -61.5t-26 -61.5t-62 -25.5t-61.5 25.5t-25.5 61.5zM358 1346q0 36 25.5 62t61.5 26t62 -26t26 -62t-26 -61.5t-62 -25.5t-61.5 25.5t-25.5 61.5zM573 87q0 36 25.5 62t61.5 26
t61.5 -26t25.5 -62t-25.5 -61.5t-61.5 -25.5t-61.5 25.5t-25.5 61.5zM573 717q0 36 25.5 61.5t61.5 25.5t61.5 -25.5t25.5 -61.5t-25.5 -61.5t-61.5 -25.5t-61.5 25.5t-25.5 61.5zM573 1346q0 36 25.5 62t61.5 26t61.5 -26t25.5 -62t-25.5 -61.5t-61.5 -25.5t-61.5 25.5
t-25.5 61.5zM788 87q0 36 25.5 62t61.5 26t61.5 -26t25.5 -62t-25.5 -61.5t-61.5 -25.5t-61.5 25.5t-25.5 61.5zM788 717q0 36 25.5 61.5t61.5 25.5t61.5 -25.5t25.5 -61.5t-25.5 -61.5t-61.5 -25.5t-61.5 25.5t-25.5 61.5zM788 1346q0 36 25.5 62t61.5 26t61.5 -26
t25.5 -62t-25.5 -61.5t-61.5 -25.5t-61.5 25.5t-25.5 61.5zM1002 297q0 36 26 61.5t62 25.5t61.5 -25.5t25.5 -61.5t-25.5 -61.5t-61.5 -25.5t-62 25.5t-26 61.5zM1002 507q0 36 26 61.5t62 25.5t61.5 -25.5t25.5 -61.5t-25.5 -61.5t-61.5 -25.5t-62 25.5t-26 61.5z" />
    <glyph glyph-name="seven" unicode="7" 
d="M143 1346q0 36 26 62t62 26t61.5 -26t25.5 -62t-25.5 -61.5t-61.5 -25.5t-62 25.5t-26 61.5zM358 1346q0 36 25.5 62t61.5 26t62 -26t26 -62t-26 -61.5t-62 -25.5t-61.5 25.5t-25.5 61.5zM573 87q0 36 25.5 62t61.5 26t61.5 -26t25.5 -62t-25.5 -61.5t-61.5 -25.5
t-61.5 25.5t-25.5 61.5zM573 297q0 36 25.5 61.5t61.5 25.5t61.5 -25.5t25.5 -61.5t-25.5 -61.5t-61.5 -25.5t-61.5 25.5t-25.5 61.5zM573 507q0 36 25.5 61.5t61.5 25.5t61.5 -25.5t25.5 -61.5t-25.5 -61.5t-61.5 -25.5t-61.5 25.5t-25.5 61.5zM573 1346q0 36 25.5 62
t61.5 26t61.5 -26t25.5 -62t-25.5 -61.5t-61.5 -25.5t-61.5 25.5t-25.5 61.5zM788 717q0 36 25.5 61.5t61.5 25.5t61.5 -25.5t25.5 -61.5t-25.5 -61.5t-61.5 -25.5t-61.5 25.5t-25.5 61.5zM788 1346q0 36 25.5 62t61.5 26t61.5 -26t25.5 -62t-25.5 -61.5t-61.5 -25.5
t-61.5 25.5t-25.5 61.5zM1002 927q0 36 26 61.5t62 25.5t61.5 -25.5t25.5 -61.5t-25.5 -62t-61.5 -26t-62 26t-26 62zM1002 1136q0 36 26 62t62 26t61.5 -26t25.5 -62t-25.5 -61.5t-61.5 -25.5t-62 25.5t-26 61.5zM1002 1346q0 36 26 62t62 26t61.5 -26t25.5 -62
t-25.5 -61.5t-61.5 -25.5t-62 25.5t-26 61.5z" />
    <glyph glyph-name="eight" unicode="8" 
d="M143 297q0 36 26 61.5t62 25.5t61.5 -25.5t25.5 -61.5t-25.5 -61.5t-61.5 -25.5t-62 25.5t-26 61.5zM143 507q0 36 26 61.5t62 25.5t61.5 -25.5t25.5 -61.5t-25.5 -61.5t-61.5 -25.5t-62 25.5t-26 61.5zM143 927q0 36 26 61.5t62 25.5t61.5 -25.5t25.5 -61.5t-25.5 -62
t-61.5 -26t-62 26t-26 62zM143 1136q0 36 26 62t62 26t61.5 -26t25.5 -62t-25.5 -61.5t-61.5 -25.5t-62 25.5t-26 61.5zM358 87q0 36 25.5 62t61.5 26t62 -26t26 -62t-26 -61.5t-62 -25.5t-61.5 25.5t-25.5 61.5zM358 717q0 36 25.5 61.5t61.5 25.5t62 -25.5t26 -61.5
t-26 -61.5t-62 -25.5t-61.5 25.5t-25.5 61.5zM358 1346q0 36 25.5 62t61.5 26t62 -26t26 -62t-26 -61.5t-62 -25.5t-61.5 25.5t-25.5 61.5zM573 87q0 36 25.5 62t61.5 26t61.5 -26t25.5 -62t-25.5 -61.5t-61.5 -25.5t-61.5 25.5t-25.5 61.5zM573 717q0 36 25.5 61.5
t61.5 25.5t61.5 -25.5t25.5 -61.5t-25.5 -61.5t-61.5 -25.5t-61.5 25.5t-25.5 61.5zM573 1346q0 36 25.5 62t61.5 26t61.5 -26t25.5 -62t-25.5 -61.5t-61.5 -25.5t-61.5 25.5t-25.5 61.5zM788 87q0 36 25.5 62t61.5 26t61.5 -26t25.5 -62t-25.5 -61.5t-61.5 -25.5
t-61.5 25.5t-25.5 61.5zM788 717q0 36 25.5 61.5t61.5 25.5t61.5 -25.5t25.5 -61.5t-25.5 -61.5t-61.5 -25.5t-61.5 25.5t-25.5 61.5zM788 1346q0 36 25.5 62t61.5 26t61.5 -26t25.5 -62t-25.5 -61.5t-61.5 -25.5t-61.5 25.5t-25.5 61.5zM1002 297q0 36 26 61.5t62 25.5
t61.5 -25.5t25.5 -61.5t-25.5 -61.5t-61.5 -25.5t-62 25.5t-26 61.5zM1002 507q0 36 26 61.5t62 25.5t61.5 -25.5t25.5 -61.5t-25.5 -61.5t-61.5 -25.5t-62 25.5t-26 61.5zM1002 927q0 36 26 61.5t62 25.5t61.5 -25.5t25.5 -61.5t-25.5 -62t-61.5 -26t-62 26t-26 62z
M1002 1136q0 36 26 62t62 26t61.5 -26t25.5 -62t-25.5 -61.5t-61.5 -25.5t-62 25.5t-26 61.5z" />
    <glyph glyph-name="nine" unicode="9" 
d="M143 297q0 36 26 61.5t62 25.5t61.5 -25.5t25.5 -61.5t-25.5 -61.5t-61.5 -25.5t-62 25.5t-26 61.5zM143 927q0 36 26 61.5t62 25.5t61.5 -25.5t25.5 -61.5t-25.5 -62t-61.5 -26t-62 26t-26 62zM143 1136q0 36 26 62t62 26t61.5 -26t25.5 -62t-25.5 -61.5t-61.5 -25.5
t-62 25.5t-26 61.5zM358 87q0 36 25.5 62t61.5 26t62 -26t26 -62t-26 -61.5t-62 -25.5t-61.5 25.5t-25.5 61.5zM358 717q0 36 25.5 61.5t61.5 25.5t62 -25.5t26 -61.5t-26 -61.5t-62 -25.5t-61.5 25.5t-25.5 61.5zM358 1346q0 36 25.5 62t61.5 26t62 -26t26 -62t-26 -61.5
t-62 -25.5t-61.5 25.5t-25.5 61.5zM573 87q0 36 25.5 62t61.5 26t61.5 -26t25.5 -62t-25.5 -61.5t-61.5 -25.5t-61.5 25.5t-25.5 61.5zM573 717q0 36 25.5 61.5t61.5 25.5t61.5 -25.5t25.5 -61.5t-25.5 -61.5t-61.5 -25.5t-61.5 25.5t-25.5 61.5zM573 1346q0 36 25.5 62
t61.5 26t61.5 -26t25.5 -62t-25.5 -61.5t-61.5 -25.5t-61.5 25.5t-25.5 61.5zM788 87q0 36 25.5 62t61.5 26t61.5 -26t25.5 -62t-25.5 -61.5t-61.5 -25.5t-61.5 25.5t-25.5 61.5zM788 717q0 36 25.5 61.5t61.5 25.5t61.5 -25.5t25.5 -61.5t-25.5 -61.5t-61.5 -25.5
t-61.5 25.5t-25.5 61.5zM788 1346q0 36 25.5 62t61.5 26t61.5 -26t25.5 -62t-25.5 -61.5t-61.5 -25.5t-61.5 25.5t-25.5 61.5zM1002 297q0 36 26 61.5t62 25.5t61.5 -25.5t25.5 -61.5t-25.5 -61.5t-61.5 -25.5t-62 25.5t-26 61.5zM1002 507q0 36 26 61.5t62 25.5t61.5 -25.5
t25.5 -61.5t-25.5 -61.5t-61.5 -25.5t-62 25.5t-26 61.5zM1002 717q0 36 26 61.5t62 25.5t61.5 -25.5t25.5 -61.5t-25.5 -61.5t-61.5 -25.5t-62 25.5t-26 61.5zM1002 927q0 36 26 61.5t62 25.5t61.5 -25.5t25.5 -61.5t-25.5 -62t-61.5 -26t-62 26t-26 62zM1002 1136
q0 36 26 62t62 26t61.5 -26t25.5 -62t-25.5 -61.5t-61.5 -25.5t-62 25.5t-26 61.5z" />
    <glyph glyph-name="less" unicode="&#x3c;" horiz-adv-x="880" 
d="M143 517q0 36 26 61.5t62 25.5t61.5 -25.5t25.5 -61.5t-25.5 -62t-61.5 -26t-62 26t-26 62zM353 302q0 36 25.5 61.5t61.5 25.5t62 -25.5t26 -61.5t-26 -61.5t-62 -25.5t-61.5 25.5t-25.5 61.5zM353 731q0 36 25.5 62t61.5 26t62 -26t26 -62t-26 -61.5t-62 -25.5
t-61.5 25.5t-25.5 61.5zM563 87q0 36 25.5 62t61.5 26t62 -26t26 -62t-26 -61.5t-62 -25.5t-61.5 25.5t-25.5 61.5zM563 946q0 36 25.5 62t61.5 26t62 -26t26 -62t-26 -61.5t-62 -25.5t-61.5 25.5t-25.5 61.5z" />
    <glyph glyph-name="equal" unicode="=" horiz-adv-x="1300" 
d="M143 610q0 36 26 61.5t62 25.5t61.5 -25.5t25.5 -61.5t-25.5 -62t-61.5 -26t-62 26t-26 62zM143 912q0 36 26 61.5t62 25.5t61.5 -25.5t25.5 -61.5t-25.5 -62t-61.5 -26t-62 26t-26 62zM353 610q0 36 25.5 61.5t61.5 25.5t62 -25.5t26 -61.5t-26 -62t-62 -26t-61.5 26
t-25.5 62zM353 912q0 36 25.5 61.5t61.5 25.5t62 -25.5t26 -61.5t-26 -62t-62 -26t-61.5 26t-25.5 62zM563 610q0 36 25.5 61.5t61.5 25.5t62 -25.5t26 -61.5t-26 -62t-62 -26t-61.5 26t-25.5 62zM563 912q0 36 25.5 61.5t61.5 25.5t62 -25.5t26 -61.5t-26 -62t-62 -26
t-61.5 26t-25.5 62zM773 610q0 36 25.5 61.5t61.5 25.5t61.5 -25.5t25.5 -61.5t-25.5 -62t-61.5 -26t-61.5 26t-25.5 62zM773 912q0 36 25.5 61.5t61.5 25.5t61.5 -25.5t25.5 -61.5t-25.5 -62t-61.5 -26t-61.5 26t-25.5 62zM983 610q0 36 25.5 61.5t61.5 25.5t61.5 -25.5
t25.5 -61.5t-25.5 -62t-61.5 -26t-61.5 26t-25.5 62zM983 912q0 36 25.5 61.5t61.5 25.5t61.5 -25.5t25.5 -61.5t-25.5 -62t-61.5 -26t-61.5 26t-25.5 62z" />
    <glyph glyph-name="greater" unicode="&#x3e;" horiz-adv-x="880" 
d="M143 87q0 36 26 62t62 26t61.5 -26t25.5 -62t-25.5 -61.5t-61.5 -25.5t-62 25.5t-26 61.5zM143 946q0 36 26 61.5t62 25.5t61.5 -25.5t25.5 -61.5t-25.5 -61.5t-61.5 -25.5t-62 25.5t-26 61.5zM353 302q0 36 25.5 61.5t61.5 25.5t62 -25.5t26 -61.5t-26 -61.5t-62 -25.5
t-61.5 25.5t-25.5 61.5zM353 731q0 36 25.5 62t61.5 26t62 -26t26 -62t-26 -61.5t-62 -25.5t-61.5 25.5t-25.5 61.5zM563 517q0 36 25.5 61.5t61.5 25.5t62 -25.5t26 -61.5t-26 -62t-62 -26t-61.5 26t-25.5 62z" />
    <glyph glyph-name="question" unicode="?" 
d="M143 1136q0 36 26 62t62 26t61.5 -26t25.5 -62t-25.5 -61.5t-61.5 -25.5t-62 25.5t-26 61.5zM358 1346q0 36 25.5 62t61.5 26t62 -26t26 -62t-26 -61.5t-62 -25.5t-61.5 25.5t-25.5 61.5zM573 87q0 36 25.5 62t61.5 26t61.5 -26t25.5 -62t-25.5 -61.5t-61.5 -25.5
t-61.5 25.5t-25.5 61.5zM573 507q0 36 25.5 61.5t61.5 25.5t61.5 -25.5t25.5 -61.5t-25.5 -61.5t-61.5 -25.5t-61.5 25.5t-25.5 61.5zM573 1346q0 36 25.5 62t61.5 26t61.5 -26t25.5 -62t-25.5 -61.5t-61.5 -25.5t-61.5 25.5t-25.5 61.5zM788 717q0 36 25.5 61.5t61.5 25.5
t61.5 -25.5t25.5 -61.5t-25.5 -61.5t-61.5 -25.5t-61.5 25.5t-25.5 61.5zM788 1346q0 36 25.5 62t61.5 26t61.5 -26t25.5 -62t-25.5 -61.5t-61.5 -25.5t-61.5 25.5t-25.5 61.5zM1002 927q0 36 26 61.5t62 25.5t61.5 -25.5t25.5 -61.5t-25.5 -62t-61.5 -26t-62 26t-26 62z
M1002 1136q0 36 26 62t62 26t61.5 -26t25.5 -62t-25.5 -61.5t-61.5 -25.5t-62 25.5t-26 61.5z" />
    <glyph glyph-name="at" unicode="@" 
d="M143 297q0 36 26 61.5t62 25.5t61.5 -25.5t25.5 -61.5t-25.5 -61.5t-61.5 -25.5t-62 25.5t-26 61.5zM143 507q0 36 26 61.5t62 25.5t61.5 -25.5t25.5 -61.5t-25.5 -61.5t-61.5 -25.5t-62 25.5t-26 61.5zM143 717q0 36 26 61.5t62 25.5t61.5 -25.5t25.5 -61.5t-25.5 -61.5
t-61.5 -25.5t-62 25.5t-26 61.5zM143 927q0 36 26 61.5t62 25.5t61.5 -25.5t25.5 -61.5t-25.5 -62t-61.5 -26t-62 26t-26 62zM143 1136q0 36 26 62t62 26t61.5 -26t25.5 -62t-25.5 -61.5t-61.5 -25.5t-62 25.5t-26 61.5zM358 87q0 36 25.5 62t61.5 26t62 -26t26 -62
t-26 -61.5t-62 -25.5t-61.5 25.5t-25.5 61.5zM358 1346q0 36 25.5 62t61.5 26t62 -26t26 -62t-26 -61.5t-62 -25.5t-61.5 25.5t-25.5 61.5zM573 87q0 36 25.5 62t61.5 26t61.5 -26t25.5 -62t-25.5 -61.5t-61.5 -25.5t-61.5 25.5t-25.5 61.5zM573 507q0 36 25.5 61.5
t61.5 25.5t61.5 -25.5t25.5 -61.5t-25.5 -61.5t-61.5 -25.5t-61.5 25.5t-25.5 61.5zM573 717q0 36 25.5 61.5t61.5 25.5t61.5 -25.5t25.5 -61.5t-25.5 -61.5t-61.5 -25.5t-61.5 25.5t-25.5 61.5zM573 927q0 36 25.5 61.5t61.5 25.5t61.5 -25.5t25.5 -61.5t-25.5 -62
t-61.5 -26t-61.5 26t-25.5 62zM573 1346q0 36 25.5 62t61.5 26t61.5 -26t25.5 -62t-25.5 -61.5t-61.5 -25.5t-61.5 25.5t-25.5 61.5zM788 87q0 36 25.5 62t61.5 26t61.5 -26t25.5 -62t-25.5 -61.5t-61.5 -25.5t-61.5 25.5t-25.5 61.5zM788 507q0 36 25.5 61.5t61.5 25.5
t61.5 -25.5t25.5 -61.5t-25.5 -61.5t-61.5 -25.5t-61.5 25.5t-25.5 61.5zM788 927q0 36 25.5 61.5t61.5 25.5t61.5 -25.5t25.5 -61.5t-25.5 -62t-61.5 -26t-61.5 26t-25.5 62zM788 1346q0 36 25.5 62t61.5 26t61.5 -26t25.5 -62t-25.5 -61.5t-61.5 -25.5t-61.5 25.5
t-25.5 61.5zM1002 87q0 36 26 62t62 26t61.5 -26t25.5 -62t-25.5 -61.5t-61.5 -25.5t-62 25.5t-26 61.5zM1002 507q0 36 26 61.5t62 25.5t61.5 -25.5t25.5 -61.5t-25.5 -61.5t-61.5 -25.5t-62 25.5t-26 61.5zM1002 717q0 36 26 61.5t62 25.5t61.5 -25.5t25.5 -61.5
t-25.5 -61.5t-61.5 -25.5t-62 25.5t-26 61.5zM1002 927q0 36 26 61.5t62 25.5t61.5 -25.5t25.5 -61.5t-25.5 -62t-61.5 -26t-62 26t-26 62zM1002 1136q0 36 26 62t62 26t61.5 -26t25.5 -62t-25.5 -61.5t-61.5 -25.5t-62 25.5t-26 61.5z" />
    <glyph glyph-name="A" unicode="A" 
d="M150 54q-7 16 -7 33t7 34q12 33 46 47q16 7 34 7q17 0 34 -7q34 -12 48 -46q7 -16 6 -34q0 -17 -7 -34q-13 -34 -47 -48q-16 -7 -33 -6q-17 0 -34 7q-33 13 -47 47zM150 262q-7 16 -7 34q0 17 7 34q12 34 46 48q17 7 34 7t34 -7q34 -12 48 -46q7 -16 6 -34q0 -17 -7 -34
q-13 -34 -47 -48q-17 -7 -33.5 -7t-33.5 7q-33 12 -47 46zM150 472q-7 16 -7 34q0 17 7 34q12 34 46 48q17 7 34 7t34 -7q34 -12 48 -46q7 -16 6 -34q0 -17 -7 -34q-13 -34 -47 -48q-17 -7 -33.5 -7t-33.5 7q-33 12 -47 46zM150 682q-7 16 -7 34q0 17 7 34q12 34 46 48
q16 7 34 6q17 0 34 -7q34 -13 48 -47q7 -16 6 -33q0 -17 -7 -34q-13 -33 -47 -47q-16 -7 -33 -7t-34 7q-33 12 -47 46zM150 892q-7 16 -7 34q0 17 7 34q12 34 46 48q16 7 34 6q17 0 34 -7q34 -13 48 -47q7 -16 6 -33q0 -17 -7 -34q-13 -33 -47 -47q-16 -7 -33 -7t-34 7
q-33 12 -47 46zM150 1102q-7 16 -7 34q0 17 7 34q12 34 46 48q16 7 34 6q17 0 34 -7q34 -13 48 -47q7 -16 6 -33q0 -17 -7 -34q-13 -33 -47 -47q-16 -7 -33 -7t-34 7q-33 12 -47 46zM358 717q0 36 25.5 61.5t61.5 25.5t62 -25.5t26 -61.5t-26 -61.5t-62 -25.5t-61.5 25.5
t-25.5 61.5zM358 1346q0 36 25.5 62t61.5 26t62 -26t26 -62t-26 -61.5t-62 -25.5t-61.5 25.5t-25.5 61.5zM573 717q0 36 25.5 61.5t61.5 25.5t61.5 -25.5t25.5 -61.5t-25.5 -61.5t-61.5 -25.5t-61.5 25.5t-25.5 61.5zM573 1346q0 36 25.5 62t61.5 26t61.5 -26t25.5 -62
t-25.5 -61.5t-61.5 -25.5t-61.5 25.5t-25.5 61.5zM794 682q-7 16 -7 34q0 17 7 34q12 34 46 48q16 7 34 6q17 0 34 -7q34 -13 48 -47q7 -17 7 -33.5t-7 -33.5q-13 -33 -47 -47q-17 -7 -34 -7l-34 7q-33 12 -47 46zM794 1312q-7 16 -7 34q0 17 7 34q12 34 46 48q16 7 34 6
q17 0 34 -7q34 -13 48 -47q7 -17 7 -33.5t-7 -33.5q-13 -33 -47 -47q-17 -7 -34 -7l-34 7q-33 12 -47 46zM1002 87q0 36 26 62t62 26t61.5 -26t25.5 -62t-25.5 -61.5t-61.5 -25.5t-62 25.5t-26 61.5zM1002 297q0 36 26 61.5t62 25.5t61.5 -25.5t25.5 -61.5t-25.5 -61.5
t-61.5 -25.5t-62 25.5t-26 61.5zM1002 507q0 36 26 61.5t62 25.5t61.5 -25.5t25.5 -61.5t-25.5 -61.5t-61.5 -25.5t-62 25.5t-26 61.5zM1002 717q0 36 26 61.5t62 25.5t61.5 -25.5t25.5 -61.5t-25.5 -61.5t-61.5 -25.5t-62 25.5t-26 61.5zM1002 927q0 36 26 61.5t62 25.5
t61.5 -25.5t25.5 -61.5t-25.5 -62t-61.5 -26t-62 26t-26 62zM1002 1136q0 36 26 62t62 26t61.5 -26t25.5 -62t-25.5 -61.5t-61.5 -25.5t-62 25.5t-26 61.5z" />
    <glyph glyph-name="A" unicode="&#xc4;" 
d="M150 54q-7 16 -7 33t7 34q12 33 46 47q16 7 34 7q17 0 34 -7q34 -12 48 -46q7 -16 6 -34q0 -17 -7 -34q-13 -34 -47 -48q-16 -7 -33 -6q-17 0 -34 7q-33 13 -47 47zM150 262q-7 16 -7 34q0 17 7 34q12 34 46 48q17 7 34 7t34 -7q34 -12 48 -46q7 -16 6 -34q0 -17 -7 -34
q-13 -34 -47 -48q-17 -7 -33.5 -7t-33.5 7q-33 12 -47 46zM150 472q-7 16 -7 34q0 17 7 34q12 34 46 48q17 7 34 7t34 -7q34 -12 48 -46q7 -16 6 -34q0 -17 -7 -34q-13 -34 -47 -48q-17 -7 -33.5 -7t-33.5 7q-33 12 -47 46zM150 682q-7 16 -7 34q0 17 7 34q12 34 46 48
q16 7 34 6q17 0 34 -7q34 -13 48 -47q7 -16 6 -33q0 -17 -7 -34q-13 -33 -47 -47q-16 -7 -33 -7t-34 7q-33 12 -47 46zM150 892q-7 16 -7 34q0 17 7 34q12 34 46 48q16 7 34 6q17 0 34 -7q34 -13 48 -47q7 -16 6 -33q0 -17 -7 -34q-13 -33 -47 -47q-16 -7 -33 -7t-34 7
q-33 12 -47 46zM150 1102q-7 16 -7 34q0 17 7 34q12 34 46 48q16 7 34 6q17 0 34 -7q34 -13 48 -47q7 -16 6 -33q0 -17 -7 -34q-13 -33 -47 -47q-16 -7 -33 -7t-34 7q-33 12 -47 46zM358 717q0 36 25.5 61.5t61.5 25.5t62 -25.5t26 -61.5t-26 -61.5t-62 -25.5t-61.5 25.5
t-25.5 61.5zM358 1346q0 36 25.5 62t61.5 26t62 -26t26 -62t-26 -61.5t-62 -25.5t-61.5 25.5t-25.5 61.5zM573 717q0 36 25.5 61.5t61.5 25.5t61.5 -25.5t25.5 -61.5t-25.5 -61.5t-61.5 -25.5t-61.5 25.5t-25.5 61.5zM573 1346q0 36 25.5 62t61.5 26t61.5 -26t25.5 -62
t-25.5 -61.5t-61.5 -25.5t-61.5 25.5t-25.5 61.5zM794 682q-7 16 -7 34q0 17 7 34q12 34 46 48q16 7 34 6q17 0 34 -7q34 -13 48 -47q7 -17 7 -33.5t-7 -33.5q-13 -33 -47 -47q-17 -7 -34 -7l-34 7q-33 12 -47 46zM794 1312q-7 16 -7 34q0 17 7 34q12 34 46 48q16 7 34 6
q17 0 34 -7q34 -13 48 -47q7 -17 7 -33.5t-7 -33.5q-13 -33 -47 -47q-17 -7 -34 -7l-34 7q-33 12 -47 46zM1002 87q0 36 26 62t62 26t61.5 -26t25.5 -62t-25.5 -61.5t-61.5 -25.5t-62 25.5t-26 61.5zM1002 297q0 36 26 61.5t62 25.5t61.5 -25.5t25.5 -61.5t-25.5 -61.5
t-61.5 -25.5t-62 25.5t-26 61.5zM1002 507q0 36 26 61.5t62 25.5t61.5 -25.5t25.5 -61.5t-25.5 -61.5t-61.5 -25.5t-62 25.5t-26 61.5zM1002 717q0 36 26 61.5t62 25.5t61.5 -25.5t25.5 -61.5t-25.5 -61.5t-61.5 -25.5t-62 25.5t-26 61.5zM1002 927q0 36 26 61.5t62 25.5
t61.5 -25.5t25.5 -61.5t-25.5 -62t-61.5 -26t-62 26t-26 62zM1002 1136q0 36 26 62t62 26t61.5 -26t25.5 -62t-25.5 -61.5t-61.5 -25.5t-62 25.5t-26 61.5z" />
    <glyph glyph-name="A" unicode="&#xc3;" 
d="M150 54q-7 16 -7 33t7 34q12 33 46 47q16 7 34 7q17 0 34 -7q34 -12 48 -46q7 -16 6 -34q0 -17 -7 -34q-13 -34 -47 -48q-16 -7 -33 -6q-17 0 -34 7q-33 13 -47 47zM150 262q-7 16 -7 34q0 17 7 34q12 34 46 48q17 7 34 7t34 -7q34 -12 48 -46q7 -16 6 -34q0 -17 -7 -34
q-13 -34 -47 -48q-17 -7 -33.5 -7t-33.5 7q-33 12 -47 46zM150 472q-7 16 -7 34q0 17 7 34q12 34 46 48q17 7 34 7t34 -7q34 -12 48 -46q7 -16 6 -34q0 -17 -7 -34q-13 -34 -47 -48q-17 -7 -33.5 -7t-33.5 7q-33 12 -47 46zM150 682q-7 16 -7 34q0 17 7 34q12 34 46 48
q16 7 34 6q17 0 34 -7q34 -13 48 -47q7 -16 6 -33q0 -17 -7 -34q-13 -33 -47 -47q-16 -7 -33 -7t-34 7q-33 12 -47 46zM150 892q-7 16 -7 34q0 17 7 34q12 34 46 48q16 7 34 6q17 0 34 -7q34 -13 48 -47q7 -16 6 -33q0 -17 -7 -34q-13 -33 -47 -47q-16 -7 -33 -7t-34 7
q-33 12 -47 46zM150 1102q-7 16 -7 34q0 17 7 34q12 34 46 48q16 7 34 6q17 0 34 -7q34 -13 48 -47q7 -16 6 -33q0 -17 -7 -34q-13 -33 -47 -47q-16 -7 -33 -7t-34 7q-33 12 -47 46zM358 717q0 36 25.5 61.5t61.5 25.5t62 -25.5t26 -61.5t-26 -61.5t-62 -25.5t-61.5 25.5
t-25.5 61.5zM358 1346q0 36 25.5 62t61.5 26t62 -26t26 -62t-26 -61.5t-62 -25.5t-61.5 25.5t-25.5 61.5zM573 717q0 36 25.5 61.5t61.5 25.5t61.5 -25.5t25.5 -61.5t-25.5 -61.5t-61.5 -25.5t-61.5 25.5t-25.5 61.5zM573 1346q0 36 25.5 62t61.5 26t61.5 -26t25.5 -62
t-25.5 -61.5t-61.5 -25.5t-61.5 25.5t-25.5 61.5zM794 682q-7 16 -7 34q0 17 7 34q12 34 46 48q16 7 34 6q17 0 34 -7q34 -13 48 -47q7 -17 7 -33.5t-7 -33.5q-13 -33 -47 -47q-17 -7 -34 -7l-34 7q-33 12 -47 46zM794 1312q-7 16 -7 34q0 17 7 34q12 34 46 48q16 7 34 6
q17 0 34 -7q34 -13 48 -47q7 -17 7 -33.5t-7 -33.5q-13 -33 -47 -47q-17 -7 -34 -7l-34 7q-33 12 -47 46zM1002 87q0 36 26 62t62 26t61.5 -26t25.5 -62t-25.5 -61.5t-61.5 -25.5t-62 25.5t-26 61.5zM1002 297q0 36 26 61.5t62 25.5t61.5 -25.5t25.5 -61.5t-25.5 -61.5
t-61.5 -25.5t-62 25.5t-26 61.5zM1002 507q0 36 26 61.5t62 25.5t61.5 -25.5t25.5 -61.5t-25.5 -61.5t-61.5 -25.5t-62 25.5t-26 61.5zM1002 717q0 36 26 61.5t62 25.5t61.5 -25.5t25.5 -61.5t-25.5 -61.5t-61.5 -25.5t-62 25.5t-26 61.5zM1002 927q0 36 26 61.5t62 25.5
t61.5 -25.5t25.5 -61.5t-25.5 -62t-61.5 -26t-62 26t-26 62zM1002 1136q0 36 26 62t62 26t61.5 -26t25.5 -62t-25.5 -61.5t-61.5 -25.5t-62 25.5t-26 61.5z" />
    <glyph glyph-name="A" unicode="&#xc2;" 
d="M150 54q-7 16 -7 33t7 34q12 33 46 47q16 7 34 7q17 0 34 -7q34 -12 48 -46q7 -16 6 -34q0 -17 -7 -34q-13 -34 -47 -48q-16 -7 -33 -6q-17 0 -34 7q-33 13 -47 47zM150 262q-7 16 -7 34q0 17 7 34q12 34 46 48q17 7 34 7t34 -7q34 -12 48 -46q7 -16 6 -34q0 -17 -7 -34
q-13 -34 -47 -48q-17 -7 -33.5 -7t-33.5 7q-33 12 -47 46zM150 472q-7 16 -7 34q0 17 7 34q12 34 46 48q17 7 34 7t34 -7q34 -12 48 -46q7 -16 6 -34q0 -17 -7 -34q-13 -34 -47 -48q-17 -7 -33.5 -7t-33.5 7q-33 12 -47 46zM150 682q-7 16 -7 34q0 17 7 34q12 34 46 48
q16 7 34 6q17 0 34 -7q34 -13 48 -47q7 -16 6 -33q0 -17 -7 -34q-13 -33 -47 -47q-16 -7 -33 -7t-34 7q-33 12 -47 46zM150 892q-7 16 -7 34q0 17 7 34q12 34 46 48q16 7 34 6q17 0 34 -7q34 -13 48 -47q7 -16 6 -33q0 -17 -7 -34q-13 -33 -47 -47q-16 -7 -33 -7t-34 7
q-33 12 -47 46zM150 1102q-7 16 -7 34q0 17 7 34q12 34 46 48q16 7 34 6q17 0 34 -7q34 -13 48 -47q7 -16 6 -33q0 -17 -7 -34q-13 -33 -47 -47q-16 -7 -33 -7t-34 7q-33 12 -47 46zM358 717q0 36 25.5 61.5t61.5 25.5t62 -25.5t26 -61.5t-26 -61.5t-62 -25.5t-61.5 25.5
t-25.5 61.5zM358 1346q0 36 25.5 62t61.5 26t62 -26t26 -62t-26 -61.5t-62 -25.5t-61.5 25.5t-25.5 61.5zM573 717q0 36 25.5 61.5t61.5 25.5t61.5 -25.5t25.5 -61.5t-25.5 -61.5t-61.5 -25.5t-61.5 25.5t-25.5 61.5zM573 1346q0 36 25.5 62t61.5 26t61.5 -26t25.5 -62
t-25.5 -61.5t-61.5 -25.5t-61.5 25.5t-25.5 61.5zM794 682q-7 16 -7 34q0 17 7 34q12 34 46 48q16 7 34 6q17 0 34 -7q34 -13 48 -47q7 -17 7 -33.5t-7 -33.5q-13 -33 -47 -47q-17 -7 -34 -7l-34 7q-33 12 -47 46zM794 1312q-7 16 -7 34q0 17 7 34q12 34 46 48q16 7 34 6
q17 0 34 -7q34 -13 48 -47q7 -17 7 -33.5t-7 -33.5q-13 -33 -47 -47q-17 -7 -34 -7l-34 7q-33 12 -47 46zM1002 87q0 36 26 62t62 26t61.5 -26t25.5 -62t-25.5 -61.5t-61.5 -25.5t-62 25.5t-26 61.5zM1002 297q0 36 26 61.5t62 25.5t61.5 -25.5t25.5 -61.5t-25.5 -61.5
t-61.5 -25.5t-62 25.5t-26 61.5zM1002 507q0 36 26 61.5t62 25.5t61.5 -25.5t25.5 -61.5t-25.5 -61.5t-61.5 -25.5t-62 25.5t-26 61.5zM1002 717q0 36 26 61.5t62 25.5t61.5 -25.5t25.5 -61.5t-25.5 -61.5t-61.5 -25.5t-62 25.5t-26 61.5zM1002 927q0 36 26 61.5t62 25.5
t61.5 -25.5t25.5 -61.5t-25.5 -62t-61.5 -26t-62 26t-26 62zM1002 1136q0 36 26 62t62 26t61.5 -26t25.5 -62t-25.5 -61.5t-61.5 -25.5t-62 25.5t-26 61.5z" />
    <glyph glyph-name="A" unicode="&#xc1;" 
d="M150 54q-7 16 -7 33t7 34q12 33 46 47q16 7 34 7q17 0 34 -7q34 -12 48 -46q7 -16 6 -34q0 -17 -7 -34q-13 -34 -47 -48q-16 -7 -33 -6q-17 0 -34 7q-33 13 -47 47zM150 262q-7 16 -7 34q0 17 7 34q12 34 46 48q17 7 34 7t34 -7q34 -12 48 -46q7 -16 6 -34q0 -17 -7 -34
q-13 -34 -47 -48q-17 -7 -33.5 -7t-33.5 7q-33 12 -47 46zM150 472q-7 16 -7 34q0 17 7 34q12 34 46 48q17 7 34 7t34 -7q34 -12 48 -46q7 -16 6 -34q0 -17 -7 -34q-13 -34 -47 -48q-17 -7 -33.5 -7t-33.5 7q-33 12 -47 46zM150 682q-7 16 -7 34q0 17 7 34q12 34 46 48
q16 7 34 6q17 0 34 -7q34 -13 48 -47q7 -16 6 -33q0 -17 -7 -34q-13 -33 -47 -47q-16 -7 -33 -7t-34 7q-33 12 -47 46zM150 892q-7 16 -7 34q0 17 7 34q12 34 46 48q16 7 34 6q17 0 34 -7q34 -13 48 -47q7 -16 6 -33q0 -17 -7 -34q-13 -33 -47 -47q-16 -7 -33 -7t-34 7
q-33 12 -47 46zM150 1102q-7 16 -7 34q0 17 7 34q12 34 46 48q16 7 34 6q17 0 34 -7q34 -13 48 -47q7 -16 6 -33q0 -17 -7 -34q-13 -33 -47 -47q-16 -7 -33 -7t-34 7q-33 12 -47 46zM358 717q0 36 25.5 61.5t61.5 25.5t62 -25.5t26 -61.5t-26 -61.5t-62 -25.5t-61.5 25.5
t-25.5 61.5zM358 1346q0 36 25.5 62t61.5 26t62 -26t26 -62t-26 -61.5t-62 -25.5t-61.5 25.5t-25.5 61.5zM573 717q0 36 25.5 61.5t61.5 25.5t61.5 -25.5t25.5 -61.5t-25.5 -61.5t-61.5 -25.5t-61.5 25.5t-25.5 61.5zM573 1346q0 36 25.5 62t61.5 26t61.5 -26t25.5 -62
t-25.5 -61.5t-61.5 -25.5t-61.5 25.5t-25.5 61.5zM794 682q-7 16 -7 34q0 17 7 34q12 34 46 48q16 7 34 6q17 0 34 -7q34 -13 48 -47q7 -17 7 -33.5t-7 -33.5q-13 -33 -47 -47q-17 -7 -34 -7l-34 7q-33 12 -47 46zM794 1312q-7 16 -7 34q0 17 7 34q12 34 46 48q16 7 34 6
q17 0 34 -7q34 -13 48 -47q7 -17 7 -33.5t-7 -33.5q-13 -33 -47 -47q-17 -7 -34 -7l-34 7q-33 12 -47 46zM1002 87q0 36 26 62t62 26t61.5 -26t25.5 -62t-25.5 -61.5t-61.5 -25.5t-62 25.5t-26 61.5zM1002 297q0 36 26 61.5t62 25.5t61.5 -25.5t25.5 -61.5t-25.5 -61.5
t-61.5 -25.5t-62 25.5t-26 61.5zM1002 507q0 36 26 61.5t62 25.5t61.5 -25.5t25.5 -61.5t-25.5 -61.5t-61.5 -25.5t-62 25.5t-26 61.5zM1002 717q0 36 26 61.5t62 25.5t61.5 -25.5t25.5 -61.5t-25.5 -61.5t-61.5 -25.5t-62 25.5t-26 61.5zM1002 927q0 36 26 61.5t62 25.5
t61.5 -25.5t25.5 -61.5t-25.5 -62t-61.5 -26t-62 26t-26 62zM1002 1136q0 36 26 62t62 26t61.5 -26t25.5 -62t-25.5 -61.5t-61.5 -25.5t-62 25.5t-26 61.5z" />
    <glyph glyph-name="A" unicode="&#xc0;" 
d="M150 54q-7 16 -7 33t7 34q12 33 46 47q16 7 34 7q17 0 34 -7q34 -12 48 -46q7 -16 6 -34q0 -17 -7 -34q-13 -34 -47 -48q-16 -7 -33 -6q-17 0 -34 7q-33 13 -47 47zM150 262q-7 16 -7 34q0 17 7 34q12 34 46 48q17 7 34 7t34 -7q34 -12 48 -46q7 -16 6 -34q0 -17 -7 -34
q-13 -34 -47 -48q-17 -7 -33.5 -7t-33.5 7q-33 12 -47 46zM150 472q-7 16 -7 34q0 17 7 34q12 34 46 48q17 7 34 7t34 -7q34 -12 48 -46q7 -16 6 -34q0 -17 -7 -34q-13 -34 -47 -48q-17 -7 -33.5 -7t-33.5 7q-33 12 -47 46zM150 682q-7 16 -7 34q0 17 7 34q12 34 46 48
q16 7 34 6q17 0 34 -7q34 -13 48 -47q7 -16 6 -33q0 -17 -7 -34q-13 -33 -47 -47q-16 -7 -33 -7t-34 7q-33 12 -47 46zM150 892q-7 16 -7 34q0 17 7 34q12 34 46 48q16 7 34 6q17 0 34 -7q34 -13 48 -47q7 -16 6 -33q0 -17 -7 -34q-13 -33 -47 -47q-16 -7 -33 -7t-34 7
q-33 12 -47 46zM150 1102q-7 16 -7 34q0 17 7 34q12 34 46 48q16 7 34 6q17 0 34 -7q34 -13 48 -47q7 -16 6 -33q0 -17 -7 -34q-13 -33 -47 -47q-16 -7 -33 -7t-34 7q-33 12 -47 46zM358 717q0 36 25.5 61.5t61.5 25.5t62 -25.5t26 -61.5t-26 -61.5t-62 -25.5t-61.5 25.5
t-25.5 61.5zM358 1346q0 36 25.5 62t61.5 26t62 -26t26 -62t-26 -61.5t-62 -25.5t-61.5 25.5t-25.5 61.5zM573 717q0 36 25.5 61.5t61.5 25.5t61.5 -25.5t25.5 -61.5t-25.5 -61.5t-61.5 -25.5t-61.5 25.5t-25.5 61.5zM573 1346q0 36 25.5 62t61.5 26t61.5 -26t25.5 -62
t-25.5 -61.5t-61.5 -25.5t-61.5 25.5t-25.5 61.5zM794 682q-7 16 -7 34q0 17 7 34q12 34 46 48q16 7 34 6q17 0 34 -7q34 -13 48 -47q7 -17 7 -33.5t-7 -33.5q-13 -33 -47 -47q-17 -7 -34 -7l-34 7q-33 12 -47 46zM794 1312q-7 16 -7 34q0 17 7 34q12 34 46 48q16 7 34 6
q17 0 34 -7q34 -13 48 -47q7 -17 7 -33.5t-7 -33.5q-13 -33 -47 -47q-17 -7 -34 -7l-34 7q-33 12 -47 46zM1002 87q0 36 26 62t62 26t61.5 -26t25.5 -62t-25.5 -61.5t-61.5 -25.5t-62 25.5t-26 61.5zM1002 297q0 36 26 61.5t62 25.5t61.5 -25.5t25.5 -61.5t-25.5 -61.5
t-61.5 -25.5t-62 25.5t-26 61.5zM1002 507q0 36 26 61.5t62 25.5t61.5 -25.5t25.5 -61.5t-25.5 -61.5t-61.5 -25.5t-62 25.5t-26 61.5zM1002 717q0 36 26 61.5t62 25.5t61.5 -25.5t25.5 -61.5t-25.5 -61.5t-61.5 -25.5t-62 25.5t-26 61.5zM1002 927q0 36 26 61.5t62 25.5
t61.5 -25.5t25.5 -61.5t-25.5 -62t-61.5 -26t-62 26t-26 62zM1002 1136q0 36 26 62t62 26t61.5 -26t25.5 -62t-25.5 -61.5t-61.5 -25.5t-62 25.5t-26 61.5z" />
    <glyph glyph-name="B" unicode="B" 
d="M143 87q0 36 26 62t62 26t61.5 -26t25.5 -62t-25.5 -61.5t-61.5 -25.5t-62 25.5t-26 61.5zM143 297q0 36 26 61.5t62 25.5t61.5 -25.5t25.5 -61.5t-25.5 -61.5t-61.5 -25.5t-62 25.5t-26 61.5zM143 507q0 36 26 61.5t62 25.5t61.5 -25.5t25.5 -61.5t-25.5 -61.5
t-61.5 -25.5t-62 25.5t-26 61.5zM143 717q0 36 26 61.5t62 25.5t61.5 -25.5t25.5 -61.5t-25.5 -61.5t-61.5 -25.5t-62 25.5t-26 61.5zM143 927q0 36 26 61.5t62 25.5t61.5 -25.5t25.5 -61.5t-25.5 -62t-61.5 -26t-62 26t-26 62zM143 1136q0 36 26 62t62 26t61.5 -26
t25.5 -62t-25.5 -61.5t-61.5 -25.5t-62 25.5t-26 61.5zM143 1346q0 36 26 62t62 26t61.5 -26t25.5 -62t-25.5 -61.5t-61.5 -25.5t-62 25.5t-26 61.5zM358 87q0 36 25.5 62t61.5 26t62 -26t26 -62t-26 -61.5t-62 -25.5t-61.5 25.5t-25.5 61.5zM358 717q0 36 25.5 61.5
t61.5 25.5t62 -25.5t26 -61.5t-26 -61.5t-62 -25.5t-61.5 25.5t-25.5 61.5zM358 1346q0 36 25.5 62t61.5 26t62 -26t26 -62t-26 -61.5t-62 -25.5t-61.5 25.5t-25.5 61.5zM573 87q0 36 25.5 62t61.5 26t61.5 -26t25.5 -62t-25.5 -61.5t-61.5 -25.5t-61.5 25.5t-25.5 61.5z
M573 717q0 36 25.5 61.5t61.5 25.5t61.5 -25.5t25.5 -61.5t-25.5 -61.5t-61.5 -25.5t-61.5 25.5t-25.5 61.5zM573 1346q0 36 25.5 62t61.5 26t61.5 -26t25.5 -62t-25.5 -61.5t-61.5 -25.5t-61.5 25.5t-25.5 61.5zM788 87q0 36 25.5 62t61.5 26t61.5 -26t25.5 -62
t-25.5 -61.5t-61.5 -25.5t-61.5 25.5t-25.5 61.5zM788 717q0 36 25.5 61.5t61.5 25.5t61.5 -25.5t25.5 -61.5t-25.5 -61.5t-61.5 -25.5t-61.5 25.5t-25.5 61.5zM788 1346q0 36 25.5 62t61.5 26t61.5 -26t25.5 -62t-25.5 -61.5t-61.5 -25.5t-61.5 25.5t-25.5 61.5zM1003 283
q-1 8 -1 15q0 27 16 50q22 29 58 35q8 1 16 1q27 0 49 -16q29 -21 35 -57l2 -16q0 -27 -17 -49q-21 -29 -57 -35q-8 -1 -16 -1q-28 0 -50 16q-30 21 -35 57zM1003 493q-1 8 -1 15q0 27 16 50q22 29 58 35q8 1 16 1q27 0 49 -16q29 -21 35 -57l2 -16q0 -27 -17 -49
q-21 -29 -57 -35q-8 -1 -16 -1q-28 0 -50 16q-30 21 -35 57zM1003 913q-1 8 -1 15q0 27 16 50q22 29 58 35q8 1 16 1q27 0 49 -16q29 -21 35 -57l2 -16q0 -27 -17 -49q-21 -29 -57 -35q-8 -1 -16 -1q-28 0 -50 16q-30 21 -35 57zM1008 1102q-7 16 -6 34q0 17 7 34
q13 34 47 48q16 7 33 6q17 0 34 -7q33 -13 47 -47q7 -16 7 -33t-7 -34q-12 -33 -46 -47q-16 -7 -34 -7q-17 0 -34 7q-34 12 -48 46z" />
    <glyph glyph-name="C" unicode="C" 
d="M145 283q-1 8 -1 16q0 27 16 49q21 29 57 35l16 2q27 0 49 -17q29 -21 35 -57l2 -16q0 -27 -17 -49q-21 -29 -57 -35q-8 -1 -16 -1q-27 0 -49 16q-29 21 -35 57zM145 493q-1 8 -1 16q0 27 16 49q21 29 57 35l16 2q27 0 49 -17q29 -21 35 -57l2 -16q0 -27 -17 -49
q-21 -29 -57 -35q-8 -1 -16 -1q-27 0 -49 16q-29 21 -35 57zM145 703q-1 8 -1 16q0 27 16 49q21 29 57 35l16 2q27 0 49 -17q29 -21 35 -57l2 -16q0 -27 -17 -49q-21 -29 -57 -35q-8 -1 -16 -1q-27 0 -49 16q-29 21 -35 57zM145 913q-1 8 -1 16q0 27 16 49q21 29 57 35l16 2
q27 0 49 -17q29 -21 35 -57l2 -16q0 -27 -17 -49q-21 -29 -57 -35q-8 -1 -16 -1q-27 0 -49 16q-29 21 -35 57zM145 1123q-1 8 -1 16q0 27 16 49q21 29 57 35q8 1 15 2q27 1 50 -17q29 -22 35 -58l2 -16q0 -27 -17 -49q-21 -29 -57 -35q-8 -1 -15 -1q-27 1 -50 17
q-29 22 -35 57zM358 87q0 36 25.5 62t61.5 26t62 -26t26 -62t-26 -61.5t-62 -25.5t-61.5 25.5t-25.5 61.5zM358 1346q0 36 25.5 62t61.5 26t62 -26t26 -62t-26 -61.5t-62 -25.5t-61.5 25.5t-25.5 61.5zM573 87q0 36 25.5 62t61.5 26t61.5 -26t25.5 -62t-25.5 -61.5
t-61.5 -25.5t-61.5 25.5t-25.5 61.5zM573 1346q0 36 25.5 62t61.5 26t61.5 -26t25.5 -62t-25.5 -61.5t-61.5 -25.5t-61.5 25.5t-25.5 61.5zM789 73q-1 8 -1 16q0 27 16 49q21 29 57 35q8 1 16 1q27 0 49 -16q29 -21 35 -57l2 -16q0 -27 -17 -49q-21 -29 -57 -35
q-8 -1 -16 -1q-27 0 -49 16q-29 21 -35 57zM789 1332q-1 8 -1 16q0 28 16 50q21 30 57 35q8 1 15 1q27 0 50 -16q29 -22 35 -58l2 -16q0 -27 -17 -49q-21 -29 -57 -35q-8 -1 -16 -1q-27 0 -49 16q-29 21 -35 57zM1002 297q0 36 26 61.5t62 25.5t61.5 -25.5t25.5 -61.5
t-25.5 -61.5t-61.5 -25.5t-62 25.5t-26 61.5zM1002 1136q0 36 26 62t62 26t61.5 -26t25.5 -62t-25.5 -61.5t-61.5 -25.5t-62 25.5t-26 61.5z" />
    <glyph glyph-name="D" unicode="D" 
d="M143 87q0 36 26 62t62 26t61.5 -26t25.5 -62t-25.5 -61.5t-61.5 -25.5t-62 25.5t-26 61.5zM143 297q0 36 26 61.5t62 25.5t61.5 -25.5t25.5 -61.5t-25.5 -61.5t-61.5 -25.5t-62 25.5t-26 61.5zM143 507q0 36 26 61.5t62 25.5t61.5 -25.5t25.5 -61.5t-25.5 -61.5
t-61.5 -25.5t-62 25.5t-26 61.5zM143 717q0 36 26 61.5t62 25.5t61.5 -25.5t25.5 -61.5t-25.5 -61.5t-61.5 -25.5t-62 25.5t-26 61.5zM143 927q0 36 26 61.5t62 25.5t61.5 -25.5t25.5 -61.5t-25.5 -62t-61.5 -26t-62 26t-26 62zM143 1136q0 36 26 62t62 26t61.5 -26
t25.5 -62t-25.5 -61.5t-61.5 -25.5t-62 25.5t-26 61.5zM143 1346q0 36 26 62t62 26t61.5 -26t25.5 -62t-25.5 -61.5t-61.5 -25.5t-62 25.5t-26 61.5zM358 87q0 36 25.5 62t61.5 26t62 -26t26 -62t-26 -61.5t-62 -25.5t-61.5 25.5t-25.5 61.5zM358 1346q0 36 25.5 62t61.5 26
t62 -26t26 -62t-26 -61.5t-62 -25.5t-61.5 25.5t-25.5 61.5zM574 73q-1 8 -1 16q0 27 16 49q21 29 57 35q8 1 16 1q27 0 49 -16q29 -21 35 -57l2 -16q0 -27 -17 -49q-21 -29 -57 -35q-8 -1 -16 -1q-27 0 -49 16q-29 21 -35 57zM574 1332q-1 8 -1 16q0 28 16 50q21 30 57 35
q8 1 15 1q27 0 50 -16q29 -22 35 -58l2 -16q0 -27 -17 -49q-21 -29 -57 -35q-8 -1 -16 -1q-27 0 -49 16q-29 21 -35 57zM788 87q0 36 25.5 62t61.5 26t61.5 -26t25.5 -62t-25.5 -61.5t-61.5 -25.5t-61.5 25.5t-25.5 61.5zM788 1346q0 36 25.5 62t61.5 26t61.5 -26t25.5 -62
t-25.5 -61.5t-61.5 -25.5t-61.5 25.5t-25.5 61.5zM1002 297q0 36 26 61.5t62 25.5t61.5 -25.5t25.5 -61.5t-25.5 -61.5t-61.5 -25.5t-62 25.5t-26 61.5zM1002 507q0 36 26 61.5t62 25.5t61.5 -25.5t25.5 -61.5t-25.5 -61.5t-61.5 -25.5t-62 25.5t-26 61.5zM1002 717
q0 36 26 61.5t62 25.5t61.5 -25.5t25.5 -61.5t-25.5 -61.5t-61.5 -25.5t-62 25.5t-26 61.5zM1002 927q0 36 26 61.5t62 25.5t61.5 -25.5t25.5 -61.5t-25.5 -62t-61.5 -26t-62 26t-26 62zM1002 1136q0 36 26 62t62 26t61.5 -26t25.5 -62t-25.5 -61.5t-61.5 -25.5t-62 25.5
t-26 61.5z" />
    <glyph glyph-name="E" unicode="E" 
d="M143 87q0 36 26 62t62 26t61.5 -26t25.5 -62t-25.5 -61.5t-61.5 -25.5t-62 25.5t-26 61.5zM143 297q0 36 26 61.5t62 25.5t61.5 -25.5t25.5 -61.5t-25.5 -61.5t-61.5 -25.5t-62 25.5t-26 61.5zM143 507q0 36 26 61.5t62 25.5t61.5 -25.5t25.5 -61.5t-25.5 -61.5
t-61.5 -25.5t-62 25.5t-26 61.5zM143 717q0 36 26 61.5t62 25.5t61.5 -25.5t25.5 -61.5t-25.5 -61.5t-61.5 -25.5t-62 25.5t-26 61.5zM143 927q0 36 26 61.5t62 25.5t61.5 -25.5t25.5 -61.5t-25.5 -62t-61.5 -26t-62 26t-26 62zM143 1136q0 36 26 62t62 26t61.5 -26
t25.5 -62t-25.5 -61.5t-61.5 -25.5t-62 25.5t-26 61.5zM143 1346q0 36 26 62t62 26t61.5 -26t25.5 -62t-25.5 -61.5t-61.5 -25.5t-62 25.5t-26 61.5zM359 73q-1 8 -1 16q0 27 16 49q21 30 57 36q8 1 15 1q26 -1 50 -17q30 -22 36 -57q1 -8 2 -15q0 -27 -18 -50
q-22 -29 -57 -35q-8 -1 -16 -1q-27 0 -49 16q-29 21 -35 57zM359 703q-1 8 -1 16q0 27 16 49q21 29 57 35q8 1 16 1q27 0 49 -16q30 -21 36 -57q1 -8 2 -15q0 -27 -18 -50q-22 -29 -57 -35q-8 -1 -16 -1q-27 0 -49 16q-29 21 -35 57zM359 1332q-1 8 -1 16q0 28 16 50
q21 30 57 35q8 1 15 1q26 0 50 -16q30 -22 36 -58q1 -8 2 -15q0 -27 -18 -50q-22 -29 -57 -35q-8 -1 -16 -1q-27 0 -49 16q-29 21 -35 57zM573 87q0 36 25.5 62t61.5 26t61.5 -26t25.5 -62t-25.5 -61.5t-61.5 -25.5t-61.5 25.5t-25.5 61.5zM573 717q0 36 25.5 61.5
t61.5 25.5t61.5 -25.5t25.5 -61.5t-25.5 -61.5t-61.5 -25.5t-61.5 25.5t-25.5 61.5zM573 1346q0 36 25.5 62t61.5 26t61.5 -26t25.5 -62t-25.5 -61.5t-61.5 -25.5t-61.5 25.5t-25.5 61.5zM788 87q0 36 25.5 62t61.5 26t61.5 -26t25.5 -62t-25.5 -61.5t-61.5 -25.5
t-61.5 25.5t-25.5 61.5zM788 717q0 36 25.5 61.5t61.5 25.5t61.5 -25.5t25.5 -61.5t-25.5 -61.5t-61.5 -25.5t-61.5 25.5t-25.5 61.5zM788 1346q0 36 25.5 62t61.5 26t61.5 -26t25.5 -62t-25.5 -61.5t-61.5 -25.5t-61.5 25.5t-25.5 61.5zM1004 73q-1 8 -1 16q0 27 16 49
q21 30 57 36q8 1 15 1q27 -1 50 -17q29 -22 35 -57l2 -16q0 -27 -17 -49q-21 -29 -57 -35q-8 -1 -16 -1q-27 0 -49 16q-29 21 -35 57zM1008 1312q-7 16 -6 34q0 17 7 34q13 34 47 48q16 7 33 6q17 0 34 -7q33 -13 47 -47q7 -16 7 -33t-7 -34q-12 -33 -46 -47q-16 -7 -34 -7
q-17 0 -34 7q-34 12 -48 46z" />
    <glyph glyph-name="E" unicode="&#xca;" 
d="M143 87q0 36 26 62t62 26t61.5 -26t25.5 -62t-25.5 -61.5t-61.5 -25.5t-62 25.5t-26 61.5zM143 297q0 36 26 61.5t62 25.5t61.5 -25.5t25.5 -61.5t-25.5 -61.5t-61.5 -25.5t-62 25.5t-26 61.5zM143 507q0 36 26 61.5t62 25.5t61.5 -25.5t25.5 -61.5t-25.5 -61.5
t-61.5 -25.5t-62 25.5t-26 61.5zM143 717q0 36 26 61.5t62 25.5t61.5 -25.5t25.5 -61.5t-25.5 -61.5t-61.5 -25.5t-62 25.5t-26 61.5zM143 927q0 36 26 61.5t62 25.5t61.5 -25.5t25.5 -61.5t-25.5 -62t-61.5 -26t-62 26t-26 62zM143 1136q0 36 26 62t62 26t61.5 -26
t25.5 -62t-25.5 -61.5t-61.5 -25.5t-62 25.5t-26 61.5zM143 1346q0 36 26 62t62 26t61.5 -26t25.5 -62t-25.5 -61.5t-61.5 -25.5t-62 25.5t-26 61.5zM359 73q-1 8 -1 16q0 27 16 49q21 30 57 36q8 1 15 1q26 -1 50 -17q30 -22 36 -57q1 -8 2 -15q0 -27 -18 -50
q-22 -29 -57 -35q-8 -1 -16 -1q-27 0 -49 16q-29 21 -35 57zM359 703q-1 8 -1 16q0 27 16 49q21 29 57 35q8 1 16 1q27 0 49 -16q30 -21 36 -57q1 -8 2 -15q0 -27 -18 -50q-22 -29 -57 -35q-8 -1 -16 -1q-27 0 -49 16q-29 21 -35 57zM359 1332q-1 8 -1 16q0 28 16 50
q21 30 57 35q8 1 15 1q26 0 50 -16q30 -22 36 -58q1 -8 2 -15q0 -27 -18 -50q-22 -29 -57 -35q-8 -1 -16 -1q-27 0 -49 16q-29 21 -35 57zM573 87q0 36 25.5 62t61.5 26t61.5 -26t25.5 -62t-25.5 -61.5t-61.5 -25.5t-61.5 25.5t-25.5 61.5zM573 717q0 36 25.5 61.5
t61.5 25.5t61.5 -25.5t25.5 -61.5t-25.5 -61.5t-61.5 -25.5t-61.5 25.5t-25.5 61.5zM573 1346q0 36 25.5 62t61.5 26t61.5 -26t25.5 -62t-25.5 -61.5t-61.5 -25.5t-61.5 25.5t-25.5 61.5zM788 87q0 36 25.5 62t61.5 26t61.5 -26t25.5 -62t-25.5 -61.5t-61.5 -25.5
t-61.5 25.5t-25.5 61.5zM788 717q0 36 25.5 61.5t61.5 25.5t61.5 -25.5t25.5 -61.5t-25.5 -61.5t-61.5 -25.5t-61.5 25.5t-25.5 61.5zM788 1346q0 36 25.5 62t61.5 26t61.5 -26t25.5 -62t-25.5 -61.5t-61.5 -25.5t-61.5 25.5t-25.5 61.5zM1004 73q-1 8 -1 16q0 27 16 49
q21 30 57 36q8 1 15 1q27 -1 50 -17q29 -22 35 -57l2 -16q0 -27 -17 -49q-21 -29 -57 -35q-8 -1 -16 -1q-27 0 -49 16q-29 21 -35 57zM1008 1312q-7 16 -6 34q0 17 7 34q13 34 47 48q16 7 33 6q17 0 34 -7q33 -13 47 -47q7 -16 7 -33t-7 -34q-12 -33 -46 -47q-16 -7 -34 -7
q-17 0 -34 7q-34 12 -48 46z" />
    <glyph glyph-name="E" unicode="&#xc9;" 
d="M143 87q0 36 26 62t62 26t61.5 -26t25.5 -62t-25.5 -61.5t-61.5 -25.5t-62 25.5t-26 61.5zM143 297q0 36 26 61.5t62 25.5t61.5 -25.5t25.5 -61.5t-25.5 -61.5t-61.5 -25.5t-62 25.5t-26 61.5zM143 507q0 36 26 61.5t62 25.5t61.5 -25.5t25.5 -61.5t-25.5 -61.5
t-61.5 -25.5t-62 25.5t-26 61.5zM143 717q0 36 26 61.5t62 25.5t61.5 -25.5t25.5 -61.5t-25.5 -61.5t-61.5 -25.5t-62 25.5t-26 61.5zM143 927q0 36 26 61.5t62 25.5t61.5 -25.5t25.5 -61.5t-25.5 -62t-61.5 -26t-62 26t-26 62zM143 1136q0 36 26 62t62 26t61.5 -26
t25.5 -62t-25.5 -61.5t-61.5 -25.5t-62 25.5t-26 61.5zM143 1346q0 36 26 62t62 26t61.5 -26t25.5 -62t-25.5 -61.5t-61.5 -25.5t-62 25.5t-26 61.5zM359 73q-1 8 -1 16q0 27 16 49q21 30 57 36q8 1 15 1q26 -1 50 -17q30 -22 36 -57q1 -8 2 -15q0 -27 -18 -50
q-22 -29 -57 -35q-8 -1 -16 -1q-27 0 -49 16q-29 21 -35 57zM359 703q-1 8 -1 16q0 27 16 49q21 29 57 35q8 1 16 1q27 0 49 -16q30 -21 36 -57q1 -8 2 -15q0 -27 -18 -50q-22 -29 -57 -35q-8 -1 -16 -1q-27 0 -49 16q-29 21 -35 57zM359 1332q-1 8 -1 16q0 28 16 50
q21 30 57 35q8 1 15 1q26 0 50 -16q30 -22 36 -58q1 -8 2 -15q0 -27 -18 -50q-22 -29 -57 -35q-8 -1 -16 -1q-27 0 -49 16q-29 21 -35 57zM573 87q0 36 25.5 62t61.5 26t61.5 -26t25.5 -62t-25.5 -61.5t-61.5 -25.5t-61.5 25.5t-25.5 61.5zM573 717q0 36 25.5 61.5
t61.5 25.5t61.5 -25.5t25.5 -61.5t-25.5 -61.5t-61.5 -25.5t-61.5 25.5t-25.5 61.5zM573 1346q0 36 25.5 62t61.5 26t61.5 -26t25.5 -62t-25.5 -61.5t-61.5 -25.5t-61.5 25.5t-25.5 61.5zM788 87q0 36 25.5 62t61.5 26t61.5 -26t25.5 -62t-25.5 -61.5t-61.5 -25.5
t-61.5 25.5t-25.5 61.5zM788 717q0 36 25.5 61.5t61.5 25.5t61.5 -25.5t25.5 -61.5t-25.5 -61.5t-61.5 -25.5t-61.5 25.5t-25.5 61.5zM788 1346q0 36 25.5 62t61.5 26t61.5 -26t25.5 -62t-25.5 -61.5t-61.5 -25.5t-61.5 25.5t-25.5 61.5zM1004 73q-1 8 -1 16q0 27 16 49
q21 30 57 36q8 1 15 1q27 -1 50 -17q29 -22 35 -57l2 -16q0 -27 -17 -49q-21 -29 -57 -35q-8 -1 -16 -1q-27 0 -49 16q-29 21 -35 57zM1008 1312q-7 16 -6 34q0 17 7 34q13 34 47 48q16 7 33 6q17 0 34 -7q33 -13 47 -47q7 -16 7 -33t-7 -34q-12 -33 -46 -47q-16 -7 -34 -7
q-17 0 -34 7q-34 12 -48 46z" />
    <glyph glyph-name="E" unicode="&#xc8;" 
d="M143 87q0 36 26 62t62 26t61.5 -26t25.5 -62t-25.5 -61.5t-61.5 -25.5t-62 25.5t-26 61.5zM143 297q0 36 26 61.5t62 25.5t61.5 -25.5t25.5 -61.5t-25.5 -61.5t-61.5 -25.5t-62 25.5t-26 61.5zM143 507q0 36 26 61.5t62 25.5t61.5 -25.5t25.5 -61.5t-25.5 -61.5
t-61.5 -25.5t-62 25.5t-26 61.5zM143 717q0 36 26 61.5t62 25.5t61.5 -25.5t25.5 -61.5t-25.5 -61.5t-61.5 -25.5t-62 25.5t-26 61.5zM143 927q0 36 26 61.5t62 25.5t61.5 -25.5t25.5 -61.5t-25.5 -62t-61.5 -26t-62 26t-26 62zM143 1136q0 36 26 62t62 26t61.5 -26
t25.5 -62t-25.5 -61.5t-61.5 -25.5t-62 25.5t-26 61.5zM143 1346q0 36 26 62t62 26t61.5 -26t25.5 -62t-25.5 -61.5t-61.5 -25.5t-62 25.5t-26 61.5zM359 73q-1 8 -1 16q0 27 16 49q21 30 57 36q8 1 15 1q26 -1 50 -17q30 -22 36 -57q1 -8 2 -15q0 -27 -18 -50
q-22 -29 -57 -35q-8 -1 -16 -1q-27 0 -49 16q-29 21 -35 57zM359 703q-1 8 -1 16q0 27 16 49q21 29 57 35q8 1 16 1q27 0 49 -16q30 -21 36 -57q1 -8 2 -15q0 -27 -18 -50q-22 -29 -57 -35q-8 -1 -16 -1q-27 0 -49 16q-29 21 -35 57zM359 1332q-1 8 -1 16q0 28 16 50
q21 30 57 35q8 1 15 1q26 0 50 -16q30 -22 36 -58q1 -8 2 -15q0 -27 -18 -50q-22 -29 -57 -35q-8 -1 -16 -1q-27 0 -49 16q-29 21 -35 57zM573 87q0 36 25.5 62t61.5 26t61.5 -26t25.5 -62t-25.5 -61.5t-61.5 -25.5t-61.5 25.5t-25.5 61.5zM573 717q0 36 25.5 61.5
t61.5 25.5t61.5 -25.5t25.5 -61.5t-25.5 -61.5t-61.5 -25.5t-61.5 25.5t-25.5 61.5zM573 1346q0 36 25.5 62t61.5 26t61.5 -26t25.5 -62t-25.5 -61.5t-61.5 -25.5t-61.5 25.5t-25.5 61.5zM788 87q0 36 25.5 62t61.5 26t61.5 -26t25.5 -62t-25.5 -61.5t-61.5 -25.5
t-61.5 25.5t-25.5 61.5zM788 717q0 36 25.5 61.5t61.5 25.5t61.5 -25.5t25.5 -61.5t-25.5 -61.5t-61.5 -25.5t-61.5 25.5t-25.5 61.5zM788 1346q0 36 25.5 62t61.5 26t61.5 -26t25.5 -62t-25.5 -61.5t-61.5 -25.5t-61.5 25.5t-25.5 61.5zM1004 73q-1 8 -1 16q0 27 16 49
q21 30 57 36q8 1 15 1q27 -1 50 -17q29 -22 35 -57l2 -16q0 -27 -17 -49q-21 -29 -57 -35q-8 -1 -16 -1q-27 0 -49 16q-29 21 -35 57zM1008 1312q-7 16 -6 34q0 17 7 34q13 34 47 48q16 7 33 6q17 0 34 -7q33 -13 47 -47q7 -16 7 -33t-7 -34q-12 -33 -46 -47q-16 -7 -34 -7
q-17 0 -34 7q-34 12 -48 46z" />
    <glyph glyph-name="F" unicode="F" 
d="M145 73q-1 8 -1 16q0 27 16 49q21 30 57 36q8 1 15 2q27 0 50 -18q29 -22 35 -57l2 -16q0 -27 -17 -49q-21 -29 -57 -35q-8 -1 -16 -1q-27 0 -49 16q-29 21 -35 57zM145 283q-1 8 -1 16q0 27 16 49q21 29 57 35l16 2q27 0 49 -17q29 -21 35 -57l2 -16q0 -27 -17 -49
q-21 -29 -57 -35q-8 -1 -16 -1q-27 0 -49 16q-29 21 -35 57zM145 493q-1 8 -1 16q0 27 16 49q21 29 57 35l16 2q27 0 49 -17q29 -21 35 -57l2 -16q0 -27 -17 -49q-21 -29 -57 -35q-8 -1 -16 -1q-27 0 -49 16q-29 21 -35 57zM145 703q-1 8 -1 16q0 27 16 49q21 29 57 35l16 2
q27 0 49 -17q29 -21 35 -57l2 -16q0 -27 -17 -49q-21 -29 -57 -35q-8 -1 -16 -1q-27 0 -49 16q-29 21 -35 57zM145 913q-1 8 -1 16q0 27 16 49q21 29 57 35l16 2q27 0 49 -17q29 -21 35 -57l2 -16q0 -27 -17 -49q-21 -29 -57 -35q-8 -1 -16 -1q-27 0 -49 16q-29 21 -35 57z
M145 1123q-1 8 -1 16q0 27 16 49q21 29 57 35l16 2q27 0 49 -17q29 -21 35 -57l2 -16q0 -27 -17 -49q-21 -30 -57 -36q-8 -1 -15 -1q-27 1 -50 17q-29 22 -35 57zM145 1332q-1 8 -1 16q0 28 16 50q21 30 57 35q8 1 15 1q27 0 50 -16q29 -22 35 -58l2 -16q0 -27 -17 -49
q-21 -29 -57 -35q-8 -1 -16 -1q-27 0 -49 16q-29 21 -35 57zM358 717q0 36 25.5 61.5t61.5 25.5t62 -25.5t26 -61.5t-26 -61.5t-62 -25.5t-61.5 25.5t-25.5 61.5zM358 1346q0 36 25.5 62t61.5 26t62 -26t26 -62t-26 -61.5t-62 -25.5t-61.5 25.5t-25.5 61.5zM573 717
q0 36 25.5 61.5t61.5 25.5t61.5 -25.5t25.5 -61.5t-25.5 -61.5t-61.5 -25.5t-61.5 25.5t-25.5 61.5zM573 1346q0 36 25.5 62t61.5 26t61.5 -26t25.5 -62t-25.5 -61.5t-61.5 -25.5t-61.5 25.5t-25.5 61.5zM789 703q-1 8 -1 16q0 27 16 49q21 29 57 35l16 2q27 0 49 -17
q29 -21 35 -57l2 -16q0 -27 -17 -49q-21 -29 -57 -35q-8 -1 -16 -1q-27 0 -49 16q-29 21 -35 57zM789 1332q-1 8 -1 16q0 28 16 50q21 30 57 35q8 1 15 1q27 0 50 -16q29 -22 35 -58l2 -16q0 -27 -17 -49q-21 -29 -57 -35q-8 -1 -16 -1q-27 0 -49 16q-29 21 -35 57z
M1002 1346q0 36 26 62t62 26t61.5 -26t25.5 -62t-25.5 -61.5t-61.5 -25.5t-62 25.5t-26 61.5z" />
    <glyph glyph-name="G" unicode="G" 
d="M143 297q0 36 26 61.5t62 25.5t61.5 -25.5t25.5 -61.5t-25.5 -61.5t-61.5 -25.5t-62 25.5t-26 61.5zM143 507q0 36 26 61.5t62 25.5t61.5 -25.5t25.5 -61.5t-25.5 -61.5t-61.5 -25.5t-62 25.5t-26 61.5zM143 717q0 36 26 61.5t62 25.5t61.5 -25.5t25.5 -61.5t-25.5 -61.5
t-61.5 -25.5t-62 25.5t-26 61.5zM143 927q0 36 26 61.5t62 25.5t61.5 -25.5t25.5 -61.5t-25.5 -62t-61.5 -26t-62 26t-26 62zM143 1136q0 36 26 62t62 26t61.5 -26t25.5 -62t-25.5 -61.5t-61.5 -25.5t-62 25.5t-26 61.5zM358 87q0 36 25.5 62t61.5 26t62 -26t26 -62
t-26 -61.5t-62 -25.5t-61.5 25.5t-25.5 61.5zM358 1346q0 36 25.5 62t61.5 26t62 -26t26 -62t-26 -61.5t-62 -25.5t-61.5 25.5t-25.5 61.5zM574 73q-1 8 -1 16q0 27 16 49q21 30 57 36q8 1 15 1q27 0 50 -17q29 -21 35 -57q1 -8 1 -16q0 -26 -16 -49q-21 -29 -57 -35
q-8 -1 -16 -1q-26 0 -49 16q-29 21 -35 57zM574 703q-1 8 -1 16q0 26 16 49q21 29 57 35q8 1 16 1q26 0 49 -16q29 -21 35 -57q1 -8 1 -16q0 -26 -16 -49q-21 -29 -57 -35q-8 -1 -16 -1q-26 0 -49 16q-29 21 -35 57zM574 1332q-1 8 -1 16q0 27 16 50q21 29 57 35q8 1 15 1
q27 0 50 -16q29 -22 35 -58q1 -8 1 -16q0 -26 -16 -49q-21 -29 -57 -35q-8 -1 -16 -1q-26 0 -49 16q-29 21 -35 57zM788 87q0 36 25.5 62t61.5 26t61.5 -26t25.5 -62t-25.5 -61.5t-61.5 -25.5t-61.5 25.5t-25.5 61.5zM788 717q0 36 25.5 61.5t61.5 25.5t61.5 -25.5
t25.5 -61.5t-25.5 -61.5t-61.5 -25.5t-61.5 25.5t-25.5 61.5zM788 1346q0 36 25.5 62t61.5 26t61.5 -26t25.5 -62t-25.5 -61.5t-61.5 -25.5t-61.5 25.5t-25.5 61.5zM1002 297q0 36 26 61.5t62 25.5t61.5 -25.5t25.5 -61.5t-25.5 -61.5t-61.5 -25.5t-62 25.5t-26 61.5z
M1002 507q0 36 26 61.5t62 25.5t61.5 -25.5t25.5 -61.5t-25.5 -61.5t-61.5 -25.5t-62 25.5t-26 61.5zM1002 717q0 36 26 61.5t62 25.5t61.5 -25.5t25.5 -61.5t-25.5 -61.5t-61.5 -25.5t-62 25.5t-26 61.5zM1002 1136q0 36 26 62t62 26t61.5 -26t25.5 -62t-25.5 -61.5
t-61.5 -25.5t-62 25.5t-26 61.5z" />
    <glyph glyph-name="H" unicode="H" 
d="M143 87q0 36 26 62t62 26t61.5 -26t25.5 -62t-25.5 -61.5t-61.5 -25.5t-62 25.5t-26 61.5zM143 297q0 36 26 61.5t62 25.5t61.5 -25.5t25.5 -61.5t-25.5 -61.5t-61.5 -25.5t-62 25.5t-26 61.5zM143 507q0 36 26 61.5t62 25.5t61.5 -25.5t25.5 -61.5t-25.5 -61.5
t-61.5 -25.5t-62 25.5t-26 61.5zM143 717q0 36 26 61.5t62 25.5t61.5 -25.5t25.5 -61.5t-25.5 -61.5t-61.5 -25.5t-62 25.5t-26 61.5zM143 927q0 36 26 61.5t62 25.5t61.5 -25.5t25.5 -61.5t-25.5 -62t-61.5 -26t-62 26t-26 62zM143 1136q0 36 26 62t62 26t61.5 -26
t25.5 -62t-25.5 -61.5t-61.5 -25.5t-62 25.5t-26 61.5zM143 1346q0 36 26 62t62 26t61.5 -26t25.5 -62t-25.5 -61.5t-61.5 -25.5t-62 25.5t-26 61.5zM359 703q-1 8 -1 15q0 27 16 50q22 29 58 35q8 1 16 1q27 0 49 -16q29 -21 35 -57l2 -16q0 -27 -17 -49q-21 -29 -57 -35
q-8 -1 -16 -1q-28 0 -50 16q-30 21 -35 57zM573 717q0 36 25.5 61.5t61.5 25.5t61.5 -25.5t25.5 -61.5t-25.5 -61.5t-61.5 -25.5t-61.5 25.5t-25.5 61.5zM788 717q0 36 25.5 61.5t61.5 25.5t61.5 -25.5t25.5 -61.5t-25.5 -61.5t-61.5 -25.5t-61.5 25.5t-25.5 61.5zM1004 73
q-1 8 -1 16q0 27 16 49q21 30 57 36q8 1 15 1q27 -1 50 -17q29 -22 35 -57l2 -16q0 -27 -17 -49q-21 -29 -57 -35q-8 -1 -16 -1q-27 0 -49 16q-29 21 -35 57zM1004 283q-1 8 -1 16q0 27 16 49q21 29 57 35q8 1 16 1q27 0 49 -16q29 -21 35 -57l2 -16q0 -27 -17 -49
q-21 -29 -57 -35q-8 -1 -16 -1q-27 0 -49 16q-29 21 -35 57zM1004 493q-1 8 -1 16q0 27 16 49q21 29 57 35q8 1 16 1q27 0 49 -16q29 -21 35 -57l2 -16q0 -27 -17 -49q-21 -29 -57 -35q-8 -1 -16 -1q-27 0 -49 16q-29 21 -35 57zM1004 703q-1 8 -1 16q0 27 16 49
q21 29 57 35q8 1 16 1q27 0 49 -16q29 -21 35 -57l2 -16q0 -27 -17 -49q-21 -29 -57 -35q-8 -1 -16 -1q-27 0 -49 16q-29 21 -35 57zM1004 913q-1 8 -1 16q0 27 16 49q21 29 57 35q8 1 16 1q27 0 49 -16q29 -21 35 -57l2 -16q0 -27 -17 -49q-21 -29 -57 -35q-8 -1 -16 -1
q-27 0 -49 16q-29 21 -35 57zM1004 1123q-1 8 -1 16q0 27 16 49q21 29 57 35q8 1 16 1q27 0 49 -16q29 -21 35 -57l2 -16q0 -27 -17 -49q-21 -29 -57 -35q-8 -1 -16 -1q-27 0 -49 16q-29 21 -35 57zM1008 1312q-7 16 -6 34q0 17 7 34q13 34 47 48q16 7 33 6q17 0 34 -7
q33 -13 47 -47q7 -16 7 -33t-7 -34q-12 -33 -46 -47q-16 -7 -34 -7q-17 0 -34 7q-34 12 -48 46z" />
    <glyph glyph-name="I" unicode="I" horiz-adv-x="890" 
d="M145 73q-1 8 -1 16q0 27 16 49q21 30 57 36q8 1 15 2q27 0 50 -18q29 -22 35 -57l2 -16q0 -27 -17 -49q-21 -29 -57 -35q-8 -1 -16 -1q-27 0 -49 16q-29 21 -35 57zM145 1333q-1 8 -1 16q0 27 16 49q21 29 57 35q8 1 15 1q27 0 50 -16q29 -22 35 -58l2 -16q0 -27 -17 -49
q-21 -29 -57 -35q-8 -1 -15 -1q-27 1 -50 17q-29 22 -35 57zM358 87q0 36 25.5 62t61.5 26t62 -26t26 -62t-26 -61.5t-62 -25.5t-61.5 25.5t-25.5 61.5zM358 297q0 36 25.5 61.5t61.5 25.5t62 -25.5t26 -61.5t-26 -61.5t-62 -25.5t-61.5 25.5t-25.5 61.5zM358 507
q0 36 25.5 61.5t61.5 25.5t62 -25.5t26 -61.5t-26 -61.5t-62 -25.5t-61.5 25.5t-25.5 61.5zM358 717q0 36 25.5 61.5t61.5 25.5t62 -25.5t26 -61.5t-26 -61.5t-62 -25.5t-61.5 25.5t-25.5 61.5zM358 927q0 36 25.5 61.5t61.5 25.5t62 -25.5t26 -61.5t-26 -62t-62 -26
t-61.5 26t-25.5 62zM358 1136q0 36 25.5 62t61.5 26t62 -26t26 -62t-26 -61.5t-62 -25.5t-61.5 25.5t-25.5 61.5zM358 1346q0 36 25.5 62t61.5 26t62 -26t26 -62t-26 -61.5t-62 -25.5t-61.5 25.5t-25.5 61.5zM573 87q0 36 25.5 62t61.5 26t61.5 -26t25.5 -62t-25.5 -61.5
t-61.5 -25.5t-61.5 25.5t-25.5 61.5zM573 1346q0 36 25.5 62t61.5 26t61.5 -26t25.5 -62t-25.5 -61.5t-61.5 -25.5t-61.5 25.5t-25.5 61.5z" />
    <glyph glyph-name="I" unicode="&#xce;" horiz-adv-x="890" 
d="M145 73q-1 8 -1 16q0 27 16 49q21 30 57 36q8 1 15 2q27 0 50 -18q29 -22 35 -57l2 -16q0 -27 -17 -49q-21 -29 -57 -35q-8 -1 -16 -1q-27 0 -49 16q-29 21 -35 57zM145 1333q-1 8 -1 16q0 27 16 49q21 29 57 35q8 1 15 1q27 0 50 -16q29 -22 35 -58l2 -16q0 -27 -17 -49
q-21 -29 -57 -35q-8 -1 -15 -1q-27 1 -50 17q-29 22 -35 57zM358 87q0 36 25.5 62t61.5 26t62 -26t26 -62t-26 -61.5t-62 -25.5t-61.5 25.5t-25.5 61.5zM358 297q0 36 25.5 61.5t61.5 25.5t62 -25.5t26 -61.5t-26 -61.5t-62 -25.5t-61.5 25.5t-25.5 61.5zM358 507
q0 36 25.5 61.5t61.5 25.5t62 -25.5t26 -61.5t-26 -61.5t-62 -25.5t-61.5 25.5t-25.5 61.5zM358 717q0 36 25.5 61.5t61.5 25.5t62 -25.5t26 -61.5t-26 -61.5t-62 -25.5t-61.5 25.5t-25.5 61.5zM358 927q0 36 25.5 61.5t61.5 25.5t62 -25.5t26 -61.5t-26 -62t-62 -26
t-61.5 26t-25.5 62zM358 1136q0 36 25.5 62t61.5 26t62 -26t26 -62t-26 -61.5t-62 -25.5t-61.5 25.5t-25.5 61.5zM358 1346q0 36 25.5 62t61.5 26t62 -26t26 -62t-26 -61.5t-62 -25.5t-61.5 25.5t-25.5 61.5zM573 87q0 36 25.5 62t61.5 26t61.5 -26t25.5 -62t-25.5 -61.5
t-61.5 -25.5t-61.5 25.5t-25.5 61.5zM573 1346q0 36 25.5 62t61.5 26t61.5 -26t25.5 -62t-25.5 -61.5t-61.5 -25.5t-61.5 25.5t-25.5 61.5z" />
    <glyph glyph-name="I" unicode="&#xcd;" horiz-adv-x="890" 
d="M145 73q-1 8 -1 16q0 27 16 49q21 30 57 36q8 1 15 2q27 0 50 -18q29 -22 35 -57l2 -16q0 -27 -17 -49q-21 -29 -57 -35q-8 -1 -16 -1q-27 0 -49 16q-29 21 -35 57zM145 1333q-1 8 -1 16q0 27 16 49q21 29 57 35q8 1 15 1q27 0 50 -16q29 -22 35 -58l2 -16q0 -27 -17 -49
q-21 -29 -57 -35q-8 -1 -15 -1q-27 1 -50 17q-29 22 -35 57zM358 87q0 36 25.5 62t61.5 26t62 -26t26 -62t-26 -61.5t-62 -25.5t-61.5 25.5t-25.5 61.5zM358 297q0 36 25.5 61.5t61.5 25.5t62 -25.5t26 -61.5t-26 -61.5t-62 -25.5t-61.5 25.5t-25.5 61.5zM358 507
q0 36 25.5 61.5t61.5 25.5t62 -25.5t26 -61.5t-26 -61.5t-62 -25.5t-61.5 25.5t-25.5 61.5zM358 717q0 36 25.5 61.5t61.5 25.5t62 -25.5t26 -61.5t-26 -61.5t-62 -25.5t-61.5 25.5t-25.5 61.5zM358 927q0 36 25.5 61.5t61.5 25.5t62 -25.5t26 -61.5t-26 -62t-62 -26
t-61.5 26t-25.5 62zM358 1136q0 36 25.5 62t61.5 26t62 -26t26 -62t-26 -61.5t-62 -25.5t-61.5 25.5t-25.5 61.5zM358 1346q0 36 25.5 62t61.5 26t62 -26t26 -62t-26 -61.5t-62 -25.5t-61.5 25.5t-25.5 61.5zM573 87q0 36 25.5 62t61.5 26t61.5 -26t25.5 -62t-25.5 -61.5
t-61.5 -25.5t-61.5 25.5t-25.5 61.5zM573 1346q0 36 25.5 62t61.5 26t61.5 -26t25.5 -62t-25.5 -61.5t-61.5 -25.5t-61.5 25.5t-25.5 61.5z" />
    <glyph glyph-name="I" unicode="&#xcc;" horiz-adv-x="890" 
d="M145 73q-1 8 -1 16q0 27 16 49q21 30 57 36q8 1 15 2q27 0 50 -18q29 -22 35 -57l2 -16q0 -27 -17 -49q-21 -29 -57 -35q-8 -1 -16 -1q-27 0 -49 16q-29 21 -35 57zM145 1333q-1 8 -1 16q0 27 16 49q21 29 57 35q8 1 15 1q27 0 50 -16q29 -22 35 -58l2 -16q0 -27 -17 -49
q-21 -29 -57 -35q-8 -1 -15 -1q-27 1 -50 17q-29 22 -35 57zM358 87q0 36 25.5 62t61.5 26t62 -26t26 -62t-26 -61.5t-62 -25.5t-61.5 25.5t-25.5 61.5zM358 297q0 36 25.5 61.5t61.5 25.5t62 -25.5t26 -61.5t-26 -61.5t-62 -25.5t-61.5 25.5t-25.5 61.5zM358 507
q0 36 25.5 61.5t61.5 25.5t62 -25.5t26 -61.5t-26 -61.5t-62 -25.5t-61.5 25.5t-25.5 61.5zM358 717q0 36 25.5 61.5t61.5 25.5t62 -25.5t26 -61.5t-26 -61.5t-62 -25.5t-61.5 25.5t-25.5 61.5zM358 927q0 36 25.5 61.5t61.5 25.5t62 -25.5t26 -61.5t-26 -62t-62 -26
t-61.5 26t-25.5 62zM358 1136q0 36 25.5 62t61.5 26t62 -26t26 -62t-26 -61.5t-62 -25.5t-61.5 25.5t-25.5 61.5zM358 1346q0 36 25.5 62t61.5 26t62 -26t26 -62t-26 -61.5t-62 -25.5t-61.5 25.5t-25.5 61.5zM573 87q0 36 25.5 62t61.5 26t61.5 -26t25.5 -62t-25.5 -61.5
t-61.5 -25.5t-61.5 25.5t-25.5 61.5zM573 1346q0 36 25.5 62t61.5 26t61.5 -26t25.5 -62t-25.5 -61.5t-61.5 -25.5t-61.5 25.5t-25.5 61.5z" />
    <glyph glyph-name="J" unicode="J" 
d="M143 297q0 36 26 61.5t62 25.5t61.5 -25.5t25.5 -61.5t-25.5 -61.5t-61.5 -25.5t-62 25.5t-26 61.5zM143 507q0 36 26 61.5t62 25.5t61.5 -25.5t25.5 -61.5t-25.5 -61.5t-61.5 -25.5t-62 25.5t-26 61.5zM358 87q0 36 25.5 62t61.5 26t62 -26t26 -62t-26 -61.5t-62 -25.5
t-61.5 25.5t-25.5 61.5zM574 74q-1 8 -1 16q0 26 16 49q21 29 57 35q8 1 15 1q27 0 50 -17q29 -21 35 -57q1 -8 1 -16q0 -26 -16 -49q-21 -29 -57 -35q-8 -1 -15 -1q-27 0 -50 16q-29 22 -35 58zM788 87q0 36 25.5 62t61.5 26t61.5 -26t25.5 -62t-25.5 -61.5t-61.5 -25.5
t-61.5 25.5t-25.5 61.5zM1002 297q0 36 26 61.5t62 25.5t61.5 -25.5t25.5 -61.5t-25.5 -61.5t-61.5 -25.5t-62 25.5t-26 61.5zM1002 507q0 36 26 61.5t62 25.5t61.5 -25.5t25.5 -61.5t-25.5 -61.5t-61.5 -25.5t-62 25.5t-26 61.5zM1002 717q0 36 26 61.5t62 25.5t61.5 -25.5
t25.5 -61.5t-25.5 -61.5t-61.5 -25.5t-62 25.5t-26 61.5zM1002 927q0 36 26 61.5t62 25.5t61.5 -25.5t25.5 -61.5t-25.5 -62t-61.5 -26t-62 26t-26 62zM1002 1136q0 36 26 62t62 26t61.5 -26t25.5 -62t-25.5 -61.5t-61.5 -25.5t-62 25.5t-26 61.5zM1002 1346q0 36 26 62
t62 26t61.5 -26t25.5 -62t-25.5 -61.5t-61.5 -25.5t-62 25.5t-26 61.5z" />
    <glyph glyph-name="K" unicode="K" 
d="M143 87q0 36 26 62t62 26t61.5 -26t25.5 -62t-25.5 -61.5t-61.5 -25.5t-62 25.5t-26 61.5zM143 297q0 36 26 61.5t62 25.5t61.5 -25.5t25.5 -61.5t-25.5 -61.5t-61.5 -25.5t-62 25.5t-26 61.5zM143 507q0 36 26 61.5t62 25.5t61.5 -25.5t25.5 -61.5t-25.5 -61.5
t-61.5 -25.5t-62 25.5t-26 61.5zM143 717q0 36 26 61.5t62 25.5t61.5 -25.5t25.5 -61.5t-25.5 -61.5t-61.5 -25.5t-62 25.5t-26 61.5zM143 927q0 36 26 61.5t62 25.5t61.5 -25.5t25.5 -61.5t-25.5 -62t-61.5 -26t-62 26t-26 62zM143 1136q0 36 26 62t62 26t61.5 -26
t25.5 -62t-25.5 -61.5t-61.5 -25.5t-62 25.5t-26 61.5zM143 1346q0 36 26 62t62 26t61.5 -26t25.5 -62t-25.5 -61.5t-61.5 -25.5t-62 25.5t-26 61.5zM358 717q0 36 25.5 61.5t61.5 25.5t62 -25.5t26 -61.5t-26 -61.5t-62 -25.5t-61.5 25.5t-25.5 61.5zM573 507
q0 36 25.5 61.5t61.5 25.5t61.5 -25.5t25.5 -61.5t-25.5 -61.5t-61.5 -25.5t-61.5 25.5t-25.5 61.5zM573 927q0 36 25.5 61.5t61.5 25.5t61.5 -25.5t25.5 -61.5t-25.5 -62t-61.5 -26t-61.5 26t-25.5 62zM788 297q0 36 25.5 61.5t61.5 25.5t61.5 -25.5t25.5 -61.5
t-25.5 -61.5t-61.5 -25.5t-61.5 25.5t-25.5 61.5zM788 1136q0 36 25.5 62t61.5 26t61.5 -26t25.5 -62t-25.5 -61.5t-61.5 -25.5t-61.5 25.5t-25.5 61.5zM1002 87q0 36 26 62t62 26t61.5 -26t25.5 -62t-25.5 -61.5t-61.5 -25.5t-62 25.5t-26 61.5zM1002 1346q0 36 26 62
t62 26t61.5 -26t25.5 -62t-25.5 -61.5t-61.5 -25.5t-62 25.5t-26 61.5z" />
    <glyph glyph-name="L" unicode="L" 
d="M143 87q0 36 26 62t62 26t61.5 -26t25.5 -62t-25.5 -61.5t-61.5 -25.5t-62 25.5t-26 61.5zM143 297q0 36 26 61.5t62 25.5t61.5 -25.5t25.5 -61.5t-25.5 -61.5t-61.5 -25.5t-62 25.5t-26 61.5zM143 507q0 36 26 61.5t62 25.5t61.5 -25.5t25.5 -61.5t-25.5 -61.5
t-61.5 -25.5t-62 25.5t-26 61.5zM143 717q0 36 26 61.5t62 25.5t61.5 -25.5t25.5 -61.5t-25.5 -61.5t-61.5 -25.5t-62 25.5t-26 61.5zM143 927q0 36 26 61.5t62 25.5t61.5 -25.5t25.5 -61.5t-25.5 -62t-61.5 -26t-62 26t-26 62zM143 1136q0 36 26 62t62 26t61.5 -26
t25.5 -62t-25.5 -61.5t-61.5 -25.5t-62 25.5t-26 61.5zM143 1346q0 36 26 62t62 26t61.5 -26t25.5 -62t-25.5 -61.5t-61.5 -25.5t-62 25.5t-26 61.5zM358 87q0 36 25.5 62t61.5 26t62 -26t26 -62t-26 -61.5t-62 -25.5t-61.5 25.5t-25.5 61.5zM573 87q0 36 25.5 62t61.5 26
t61.5 -26t25.5 -62t-25.5 -61.5t-61.5 -25.5t-61.5 25.5t-25.5 61.5zM788 87q0 36 25.5 62t61.5 26t61.5 -26t25.5 -62t-25.5 -61.5t-61.5 -25.5t-61.5 25.5t-25.5 61.5zM1002 87q0 36 26 62t62 26t61.5 -26t25.5 -62t-25.5 -61.5t-61.5 -25.5t-62 25.5t-26 61.5z" />
    <glyph glyph-name="M" unicode="M" 
d="M143 87q0 36 26 62t62 26t61.5 -26t25.5 -62t-25.5 -61.5t-61.5 -25.5t-62 25.5t-26 61.5zM143 297q0 36 26 61.5t62 25.5t61.5 -25.5t25.5 -61.5t-25.5 -61.5t-61.5 -25.5t-62 25.5t-26 61.5zM143 507q0 36 26 61.5t62 25.5t61.5 -25.5t25.5 -61.5t-25.5 -61.5
t-61.5 -25.5t-62 25.5t-26 61.5zM143 717q0 36 26 61.5t62 25.5t61.5 -25.5t25.5 -61.5t-25.5 -61.5t-61.5 -25.5t-62 25.5t-26 61.5zM143 927q0 36 26 61.5t62 25.5t61.5 -25.5t25.5 -61.5t-25.5 -62t-61.5 -26t-62 26t-26 62zM143 1136q0 36 26 62t62 26t61.5 -26
t25.5 -62t-25.5 -61.5t-61.5 -25.5t-62 25.5t-26 61.5zM143 1346q0 36 26 62t62 26t61.5 -26t25.5 -62t-25.5 -61.5t-61.5 -25.5t-62 25.5t-26 61.5zM358 1136q0 36 25.5 62t61.5 26t62 -26t26 -62t-26 -61.5t-62 -25.5t-61.5 25.5t-25.5 61.5zM573 717q0 36 25.5 61.5
t61.5 25.5t61.5 -25.5t25.5 -61.5t-25.5 -61.5t-61.5 -25.5t-61.5 25.5t-25.5 61.5zM573 927q0 36 25.5 61.5t61.5 25.5t61.5 -25.5t25.5 -61.5t-25.5 -62t-61.5 -26t-61.5 26t-25.5 62zM788 1136q0 36 25.5 62t61.5 26t61.5 -26t25.5 -62t-25.5 -61.5t-61.5 -25.5
t-61.5 25.5t-25.5 61.5zM1002 87q0 36 26 62t62 26t61.5 -26t25.5 -62t-25.5 -61.5t-61.5 -25.5t-62 25.5t-26 61.5zM1002 297q0 36 26 61.5t62 25.5t61.5 -25.5t25.5 -61.5t-25.5 -61.5t-61.5 -25.5t-62 25.5t-26 61.5zM1002 507q0 36 26 61.5t62 25.5t61.5 -25.5
t25.5 -61.5t-25.5 -61.5t-61.5 -25.5t-62 25.5t-26 61.5zM1002 717q0 36 26 61.5t62 25.5t61.5 -25.5t25.5 -61.5t-25.5 -61.5t-61.5 -25.5t-62 25.5t-26 61.5zM1002 927q0 36 26 61.5t62 25.5t61.5 -25.5t25.5 -61.5t-25.5 -62t-61.5 -26t-62 26t-26 62zM1002 1136
q0 36 26 62t62 26t61.5 -26t25.5 -62t-25.5 -61.5t-61.5 -25.5t-62 25.5t-26 61.5zM1002 1346q0 36 26 62t62 26t61.5 -26t25.5 -62t-25.5 -61.5t-61.5 -25.5t-62 25.5t-26 61.5z" />
    <glyph glyph-name="N" unicode="N" 
d="M143 87q0 36 26 62t62 26t61.5 -26t25.5 -62t-25.5 -61.5t-61.5 -25.5t-62 25.5t-26 61.5zM143 297q0 36 26 61.5t62 25.5t61.5 -25.5t25.5 -61.5t-25.5 -61.5t-61.5 -25.5t-62 25.5t-26 61.5zM143 507q0 36 26 61.5t62 25.5t61.5 -25.5t25.5 -61.5t-25.5 -61.5
t-61.5 -25.5t-62 25.5t-26 61.5zM143 717q0 36 26 61.5t62 25.5t61.5 -25.5t25.5 -61.5t-25.5 -61.5t-61.5 -25.5t-62 25.5t-26 61.5zM143 927q0 36 26 61.5t62 25.5t61.5 -25.5t25.5 -61.5t-25.5 -62t-61.5 -26t-62 26t-26 62zM143 1136q0 36 26 62t62 26t61.5 -26
t25.5 -62t-25.5 -61.5t-61.5 -25.5t-62 25.5t-26 61.5zM143 1346q0 36 26 62t62 26t61.5 -26t25.5 -62t-25.5 -61.5t-61.5 -25.5t-62 25.5t-26 61.5zM358 1136q0 36 25.5 62t61.5 26t62 -26t26 -62t-26 -61.5t-62 -25.5t-61.5 25.5t-25.5 61.5zM573 927q0 36 25.5 61.5
t61.5 25.5t61.5 -25.5t25.5 -61.5t-25.5 -62t-61.5 -26t-61.5 26t-25.5 62zM788 717q0 36 25.5 61.5t61.5 25.5t61.5 -25.5t25.5 -61.5t-25.5 -61.5t-61.5 -25.5t-61.5 25.5t-25.5 61.5zM1002 87q0 36 26 62t62 26t61.5 -26t25.5 -62t-25.5 -61.5t-61.5 -25.5t-62 25.5
t-26 61.5zM1002 297q0 36 26 61.5t62 25.5t61.5 -25.5t25.5 -61.5t-25.5 -61.5t-61.5 -25.5t-62 25.5t-26 61.5zM1002 507q0 36 26 61.5t62 25.5t61.5 -25.5t25.5 -61.5t-25.5 -61.5t-61.5 -25.5t-62 25.5t-26 61.5zM1002 717q0 36 26 61.5t62 25.5t61.5 -25.5t25.5 -61.5
t-25.5 -61.5t-61.5 -25.5t-62 25.5t-26 61.5zM1002 927q0 36 26 61.5t62 25.5t61.5 -25.5t25.5 -61.5t-25.5 -62t-61.5 -26t-62 26t-26 62zM1002 1136q0 36 26 62t62 26t61.5 -26t25.5 -62t-25.5 -61.5t-61.5 -25.5t-62 25.5t-26 61.5zM1002 1346q0 36 26 62t62 26t61.5 -26
t25.5 -62t-25.5 -61.5t-61.5 -25.5t-62 25.5t-26 61.5z" />
    <glyph glyph-name="O" unicode="O" 
d="M143 297q0 36 26 61.5t62 25.5t61.5 -25.5t25.5 -61.5t-25.5 -61.5t-61.5 -25.5t-62 25.5t-26 61.5zM143 507q0 36 26 61.5t62 25.5t61.5 -25.5t25.5 -61.5t-25.5 -61.5t-61.5 -25.5t-62 25.5t-26 61.5zM143 717q0 36 26 61.5t62 25.5t61.5 -25.5t25.5 -61.5t-25.5 -61.5
t-61.5 -25.5t-62 25.5t-26 61.5zM143 927q0 36 26 61.5t62 25.5t61.5 -25.5t25.5 -61.5t-25.5 -62t-61.5 -26t-62 26t-26 62zM143 1136q0 36 26 62t62 26t61.5 -26t25.5 -62t-25.5 -61.5t-61.5 -25.5t-62 25.5t-26 61.5zM358 87q0 36 25.5 62t61.5 26t62 -26t26 -62
t-26 -61.5t-62 -25.5t-61.5 25.5t-25.5 61.5zM358 1346q0 36 25.5 62t61.5 26t62 -26t26 -62t-26 -61.5t-62 -25.5t-61.5 25.5t-25.5 61.5zM573 87q0 36 25.5 62t61.5 26t61.5 -26t25.5 -62t-25.5 -61.5t-61.5 -25.5t-61.5 25.5t-25.5 61.5zM573 1346q0 36 25.5 62t61.5 26
t61.5 -26t25.5 -62t-25.5 -61.5t-61.5 -25.5t-61.5 25.5t-25.5 61.5zM788 87q0 36 25.5 62t61.5 26t61.5 -26t25.5 -62t-25.5 -61.5t-61.5 -25.5t-61.5 25.5t-25.5 61.5zM788 1346q0 36 25.5 62t61.5 26t61.5 -26t25.5 -62t-25.5 -61.5t-61.5 -25.5t-61.5 25.5t-25.5 61.5z
M1002 297q0 36 26 61.5t62 25.5t61.5 -25.5t25.5 -61.5t-25.5 -61.5t-61.5 -25.5t-62 25.5t-26 61.5zM1002 507q0 36 26 61.5t62 25.5t61.5 -25.5t25.5 -61.5t-25.5 -61.5t-61.5 -25.5t-62 25.5t-26 61.5zM1002 717q0 36 26 61.5t62 25.5t61.5 -25.5t25.5 -61.5t-25.5 -61.5
t-61.5 -25.5t-62 25.5t-26 61.5zM1002 927q0 36 26 61.5t62 25.5t61.5 -25.5t25.5 -61.5t-25.5 -62t-61.5 -26t-62 26t-26 62zM1002 1136q0 36 26 62t62 26t61.5 -26t25.5 -62t-25.5 -61.5t-61.5 -25.5t-62 25.5t-26 61.5z" />
    <glyph glyph-name="O" unicode="&#xd6;" 
d="M143 297q0 36 26 61.5t62 25.5t61.5 -25.5t25.5 -61.5t-25.5 -61.5t-61.5 -25.5t-62 25.5t-26 61.5zM143 507q0 36 26 61.5t62 25.5t61.5 -25.5t25.5 -61.5t-25.5 -61.5t-61.5 -25.5t-62 25.5t-26 61.5zM143 717q0 36 26 61.5t62 25.5t61.5 -25.5t25.5 -61.5t-25.5 -61.5
t-61.5 -25.5t-62 25.5t-26 61.5zM143 927q0 36 26 61.5t62 25.5t61.5 -25.5t25.5 -61.5t-25.5 -62t-61.5 -26t-62 26t-26 62zM143 1136q0 36 26 62t62 26t61.5 -26t25.5 -62t-25.5 -61.5t-61.5 -25.5t-62 25.5t-26 61.5zM358 87q0 36 25.5 62t61.5 26t62 -26t26 -62
t-26 -61.5t-62 -25.5t-61.5 25.5t-25.5 61.5zM358 1346q0 36 25.5 62t61.5 26t62 -26t26 -62t-26 -61.5t-62 -25.5t-61.5 25.5t-25.5 61.5zM573 87q0 36 25.5 62t61.5 26t61.5 -26t25.5 -62t-25.5 -61.5t-61.5 -25.5t-61.5 25.5t-25.5 61.5zM573 1346q0 36 25.5 62t61.5 26
t61.5 -26t25.5 -62t-25.5 -61.5t-61.5 -25.5t-61.5 25.5t-25.5 61.5zM788 87q0 36 25.5 62t61.5 26t61.5 -26t25.5 -62t-25.5 -61.5t-61.5 -25.5t-61.5 25.5t-25.5 61.5zM788 1346q0 36 25.5 62t61.5 26t61.5 -26t25.5 -62t-25.5 -61.5t-61.5 -25.5t-61.5 25.5t-25.5 61.5z
M1002 297q0 36 26 61.5t62 25.5t61.5 -25.5t25.5 -61.5t-25.5 -61.5t-61.5 -25.5t-62 25.5t-26 61.5zM1002 507q0 36 26 61.5t62 25.5t61.5 -25.5t25.5 -61.5t-25.5 -61.5t-61.5 -25.5t-62 25.5t-26 61.5zM1002 717q0 36 26 61.5t62 25.5t61.5 -25.5t25.5 -61.5t-25.5 -61.5
t-61.5 -25.5t-62 25.5t-26 61.5zM1002 927q0 36 26 61.5t62 25.5t61.5 -25.5t25.5 -61.5t-25.5 -62t-61.5 -26t-62 26t-26 62zM1002 1136q0 36 26 62t62 26t61.5 -26t25.5 -62t-25.5 -61.5t-61.5 -25.5t-62 25.5t-26 61.5z" />
    <glyph glyph-name="O" unicode="&#xd5;" 
d="M143 297q0 36 26 61.5t62 25.5t61.5 -25.5t25.5 -61.5t-25.5 -61.5t-61.5 -25.5t-62 25.5t-26 61.5zM143 507q0 36 26 61.5t62 25.5t61.5 -25.5t25.5 -61.5t-25.5 -61.5t-61.5 -25.5t-62 25.5t-26 61.5zM143 717q0 36 26 61.5t62 25.5t61.5 -25.5t25.5 -61.5t-25.5 -61.5
t-61.5 -25.5t-62 25.5t-26 61.5zM143 927q0 36 26 61.5t62 25.5t61.5 -25.5t25.5 -61.5t-25.5 -62t-61.5 -26t-62 26t-26 62zM143 1136q0 36 26 62t62 26t61.5 -26t25.5 -62t-25.5 -61.5t-61.5 -25.5t-62 25.5t-26 61.5zM358 87q0 36 25.5 62t61.5 26t62 -26t26 -62
t-26 -61.5t-62 -25.5t-61.5 25.5t-25.5 61.5zM358 1346q0 36 25.5 62t61.5 26t62 -26t26 -62t-26 -61.5t-62 -25.5t-61.5 25.5t-25.5 61.5zM573 87q0 36 25.5 62t61.5 26t61.5 -26t25.5 -62t-25.5 -61.5t-61.5 -25.5t-61.5 25.5t-25.5 61.5zM573 1346q0 36 25.5 62t61.5 26
t61.5 -26t25.5 -62t-25.5 -61.5t-61.5 -25.5t-61.5 25.5t-25.5 61.5zM788 87q0 36 25.5 62t61.5 26t61.5 -26t25.5 -62t-25.5 -61.5t-61.5 -25.5t-61.5 25.5t-25.5 61.5zM788 1346q0 36 25.5 62t61.5 26t61.5 -26t25.5 -62t-25.5 -61.5t-61.5 -25.5t-61.5 25.5t-25.5 61.5z
M1002 297q0 36 26 61.5t62 25.5t61.5 -25.5t25.5 -61.5t-25.5 -61.5t-61.5 -25.5t-62 25.5t-26 61.5zM1002 507q0 36 26 61.5t62 25.5t61.5 -25.5t25.5 -61.5t-25.5 -61.5t-61.5 -25.5t-62 25.5t-26 61.5zM1002 717q0 36 26 61.5t62 25.5t61.5 -25.5t25.5 -61.5t-25.5 -61.5
t-61.5 -25.5t-62 25.5t-26 61.5zM1002 927q0 36 26 61.5t62 25.5t61.5 -25.5t25.5 -61.5t-25.5 -62t-61.5 -26t-62 26t-26 62zM1002 1136q0 36 26 62t62 26t61.5 -26t25.5 -62t-25.5 -61.5t-61.5 -25.5t-62 25.5t-26 61.5z" />
    <glyph glyph-name="O" unicode="&#xd4;" 
d="M143 297q0 36 26 61.5t62 25.5t61.5 -25.5t25.5 -61.5t-25.5 -61.5t-61.5 -25.5t-62 25.5t-26 61.5zM143 507q0 36 26 61.5t62 25.5t61.5 -25.5t25.5 -61.5t-25.5 -61.5t-61.5 -25.5t-62 25.5t-26 61.5zM143 717q0 36 26 61.5t62 25.5t61.5 -25.5t25.5 -61.5t-25.5 -61.5
t-61.5 -25.5t-62 25.5t-26 61.5zM143 927q0 36 26 61.5t62 25.5t61.5 -25.5t25.5 -61.5t-25.5 -62t-61.5 -26t-62 26t-26 62zM143 1136q0 36 26 62t62 26t61.5 -26t25.5 -62t-25.5 -61.5t-61.5 -25.5t-62 25.5t-26 61.5zM358 87q0 36 25.5 62t61.5 26t62 -26t26 -62
t-26 -61.5t-62 -25.5t-61.5 25.5t-25.5 61.5zM358 1346q0 36 25.5 62t61.5 26t62 -26t26 -62t-26 -61.5t-62 -25.5t-61.5 25.5t-25.5 61.5zM573 87q0 36 25.5 62t61.5 26t61.5 -26t25.5 -62t-25.5 -61.5t-61.5 -25.5t-61.5 25.5t-25.5 61.5zM573 1346q0 36 25.5 62t61.5 26
t61.5 -26t25.5 -62t-25.5 -61.5t-61.5 -25.5t-61.5 25.5t-25.5 61.5zM788 87q0 36 25.5 62t61.5 26t61.5 -26t25.5 -62t-25.5 -61.5t-61.5 -25.5t-61.5 25.5t-25.5 61.5zM788 1346q0 36 25.5 62t61.5 26t61.5 -26t25.5 -62t-25.5 -61.5t-61.5 -25.5t-61.5 25.5t-25.5 61.5z
M1002 297q0 36 26 61.5t62 25.5t61.5 -25.5t25.5 -61.5t-25.5 -61.5t-61.5 -25.5t-62 25.5t-26 61.5zM1002 507q0 36 26 61.5t62 25.5t61.5 -25.5t25.5 -61.5t-25.5 -61.5t-61.5 -25.5t-62 25.5t-26 61.5zM1002 717q0 36 26 61.5t62 25.5t61.5 -25.5t25.5 -61.5t-25.5 -61.5
t-61.5 -25.5t-62 25.5t-26 61.5zM1002 927q0 36 26 61.5t62 25.5t61.5 -25.5t25.5 -61.5t-25.5 -62t-61.5 -26t-62 26t-26 62zM1002 1136q0 36 26 62t62 26t61.5 -26t25.5 -62t-25.5 -61.5t-61.5 -25.5t-62 25.5t-26 61.5z" />
    <glyph glyph-name="O" unicode="&#xd3;" 
d="M143 297q0 36 26 61.5t62 25.5t61.5 -25.5t25.5 -61.5t-25.5 -61.5t-61.5 -25.5t-62 25.5t-26 61.5zM143 507q0 36 26 61.5t62 25.5t61.5 -25.5t25.5 -61.5t-25.5 -61.5t-61.5 -25.5t-62 25.5t-26 61.5zM143 717q0 36 26 61.5t62 25.5t61.5 -25.5t25.5 -61.5t-25.5 -61.5
t-61.5 -25.5t-62 25.5t-26 61.5zM143 927q0 36 26 61.5t62 25.5t61.5 -25.5t25.5 -61.5t-25.5 -62t-61.5 -26t-62 26t-26 62zM143 1136q0 36 26 62t62 26t61.5 -26t25.5 -62t-25.5 -61.5t-61.5 -25.5t-62 25.5t-26 61.5zM358 87q0 36 25.5 62t61.5 26t62 -26t26 -62
t-26 -61.5t-62 -25.5t-61.5 25.5t-25.5 61.5zM358 1346q0 36 25.5 62t61.5 26t62 -26t26 -62t-26 -61.5t-62 -25.5t-61.5 25.5t-25.5 61.5zM573 87q0 36 25.5 62t61.5 26t61.5 -26t25.5 -62t-25.5 -61.5t-61.5 -25.5t-61.5 25.5t-25.5 61.5zM573 1346q0 36 25.5 62t61.5 26
t61.5 -26t25.5 -62t-25.5 -61.5t-61.5 -25.5t-61.5 25.5t-25.5 61.5zM788 87q0 36 25.5 62t61.5 26t61.5 -26t25.5 -62t-25.5 -61.5t-61.5 -25.5t-61.5 25.5t-25.5 61.5zM788 1346q0 36 25.5 62t61.5 26t61.5 -26t25.5 -62t-25.5 -61.5t-61.5 -25.5t-61.5 25.5t-25.5 61.5z
M1002 297q0 36 26 61.5t62 25.5t61.5 -25.5t25.5 -61.5t-25.5 -61.5t-61.5 -25.5t-62 25.5t-26 61.5zM1002 507q0 36 26 61.5t62 25.5t61.5 -25.5t25.5 -61.5t-25.5 -61.5t-61.5 -25.5t-62 25.5t-26 61.5zM1002 717q0 36 26 61.5t62 25.5t61.5 -25.5t25.5 -61.5t-25.5 -61.5
t-61.5 -25.5t-62 25.5t-26 61.5zM1002 927q0 36 26 61.5t62 25.5t61.5 -25.5t25.5 -61.5t-25.5 -62t-61.5 -26t-62 26t-26 62zM1002 1136q0 36 26 62t62 26t61.5 -26t25.5 -62t-25.5 -61.5t-61.5 -25.5t-62 25.5t-26 61.5z" />
    <glyph glyph-name="O" unicode="&#xd2;" 
d="M143 297q0 36 26 61.5t62 25.5t61.5 -25.5t25.5 -61.5t-25.5 -61.5t-61.5 -25.5t-62 25.5t-26 61.5zM143 507q0 36 26 61.5t62 25.5t61.5 -25.5t25.5 -61.5t-25.5 -61.5t-61.5 -25.5t-62 25.5t-26 61.5zM143 717q0 36 26 61.5t62 25.5t61.5 -25.5t25.5 -61.5t-25.5 -61.5
t-61.5 -25.5t-62 25.5t-26 61.5zM143 927q0 36 26 61.5t62 25.5t61.5 -25.5t25.5 -61.5t-25.5 -62t-61.5 -26t-62 26t-26 62zM143 1136q0 36 26 62t62 26t61.5 -26t25.5 -62t-25.5 -61.5t-61.5 -25.5t-62 25.5t-26 61.5zM358 87q0 36 25.5 62t61.5 26t62 -26t26 -62
t-26 -61.5t-62 -25.5t-61.5 25.5t-25.5 61.5zM358 1346q0 36 25.5 62t61.5 26t62 -26t26 -62t-26 -61.5t-62 -25.5t-61.5 25.5t-25.5 61.5zM573 87q0 36 25.5 62t61.5 26t61.5 -26t25.5 -62t-25.5 -61.5t-61.5 -25.5t-61.5 25.5t-25.5 61.5zM573 1346q0 36 25.5 62t61.5 26
t61.5 -26t25.5 -62t-25.5 -61.5t-61.5 -25.5t-61.5 25.5t-25.5 61.5zM788 87q0 36 25.5 62t61.5 26t61.5 -26t25.5 -62t-25.5 -61.5t-61.5 -25.5t-61.5 25.5t-25.5 61.5zM788 1346q0 36 25.5 62t61.5 26t61.5 -26t25.5 -62t-25.5 -61.5t-61.5 -25.5t-61.5 25.5t-25.5 61.5z
M1002 297q0 36 26 61.5t62 25.5t61.5 -25.5t25.5 -61.5t-25.5 -61.5t-61.5 -25.5t-62 25.5t-26 61.5zM1002 507q0 36 26 61.5t62 25.5t61.5 -25.5t25.5 -61.5t-25.5 -61.5t-61.5 -25.5t-62 25.5t-26 61.5zM1002 717q0 36 26 61.5t62 25.5t61.5 -25.5t25.5 -61.5t-25.5 -61.5
t-61.5 -25.5t-62 25.5t-26 61.5zM1002 927q0 36 26 61.5t62 25.5t61.5 -25.5t25.5 -61.5t-25.5 -62t-61.5 -26t-62 26t-26 62zM1002 1136q0 36 26 62t62 26t61.5 -26t25.5 -62t-25.5 -61.5t-61.5 -25.5t-62 25.5t-26 61.5z" />
    <glyph glyph-name="P" unicode="P" 
d="M143 87q0 36 26 62t62 26t61.5 -26t25.5 -62t-25.5 -61.5t-61.5 -25.5t-62 25.5t-26 61.5zM143 297q0 36 26 61.5t62 25.5t61.5 -25.5t25.5 -61.5t-25.5 -61.5t-61.5 -25.5t-62 25.5t-26 61.5zM143 507q0 36 26 61.5t62 25.5t61.5 -25.5t25.5 -61.5t-25.5 -61.5
t-61.5 -25.5t-62 25.5t-26 61.5zM143 717q0 36 26 61.5t62 25.5t61.5 -25.5t25.5 -61.5t-25.5 -61.5t-61.5 -25.5t-62 25.5t-26 61.5zM143 927q0 36 26 61.5t62 25.5t61.5 -25.5t25.5 -61.5t-25.5 -62t-61.5 -26t-62 26t-26 62zM143 1136q0 36 26 62t62 26t61.5 -26
t25.5 -62t-25.5 -61.5t-61.5 -25.5t-62 25.5t-26 61.5zM143 1346q0 36 26 62t62 26t61.5 -26t25.5 -62t-25.5 -61.5t-61.5 -25.5t-62 25.5t-26 61.5zM358 717q0 36 25.5 61.5t61.5 25.5t62 -25.5t26 -61.5t-26 -61.5t-62 -25.5t-61.5 25.5t-25.5 61.5zM358 1346
q0 36 25.5 62t61.5 26t62 -26t26 -62t-26 -61.5t-62 -25.5t-61.5 25.5t-25.5 61.5zM573 717q0 36 25.5 61.5t61.5 25.5t61.5 -25.5t25.5 -61.5t-25.5 -61.5t-61.5 -25.5t-61.5 25.5t-25.5 61.5zM573 1346q0 36 25.5 62t61.5 26t61.5 -26t25.5 -62t-25.5 -61.5t-61.5 -25.5
t-61.5 25.5t-25.5 61.5zM788 717q0 36 25.5 61.5t61.5 25.5t61.5 -25.5t25.5 -61.5t-25.5 -61.5t-61.5 -25.5t-61.5 25.5t-25.5 61.5zM788 1346q0 36 25.5 62t61.5 26t61.5 -26t25.5 -62t-25.5 -61.5t-61.5 -25.5t-61.5 25.5t-25.5 61.5zM1002 927q0 36 26 61.5t62 25.5
t61.5 -25.5t25.5 -61.5t-25.5 -62t-61.5 -26t-62 26t-26 62zM1002 1136q0 36 26 62t62 26t61.5 -26t25.5 -62t-25.5 -61.5t-61.5 -25.5t-62 25.5t-26 61.5z" />
    <glyph glyph-name="Q" unicode="Q" 
d="M143 297q0 36 26 61.5t62 25.5t61.5 -25.5t25.5 -61.5t-25.5 -61.5t-61.5 -25.5t-62 25.5t-26 61.5zM143 507q0 36 26 61.5t62 25.5t61.5 -25.5t25.5 -61.5t-25.5 -61.5t-61.5 -25.5t-62 25.5t-26 61.5zM143 717q0 36 26 61.5t62 25.5t61.5 -25.5t25.5 -61.5t-25.5 -61.5
t-61.5 -25.5t-62 25.5t-26 61.5zM143 927q0 36 26 61.5t62 25.5t61.5 -25.5t25.5 -61.5t-25.5 -62t-61.5 -26t-62 26t-26 62zM143 1136q0 36 26 62t62 26t61.5 -26t25.5 -62t-25.5 -61.5t-61.5 -25.5t-62 25.5t-26 61.5zM358 87q0 36 25.5 62t61.5 26t62 -26t26 -62
t-26 -61.5t-62 -25.5t-61.5 25.5t-25.5 61.5zM358 1346q0 36 25.5 62t61.5 26t62 -26t26 -62t-26 -61.5t-62 -25.5t-61.5 25.5t-25.5 61.5zM573 87q0 36 25.5 62t61.5 26t61.5 -26t25.5 -62t-25.5 -61.5t-61.5 -25.5t-61.5 25.5t-25.5 61.5zM573 507q0 36 25.5 61.5
t61.5 25.5t61.5 -25.5t25.5 -61.5t-25.5 -61.5t-61.5 -25.5t-61.5 25.5t-25.5 61.5zM573 1346q0 36 25.5 62t61.5 26t61.5 -26t25.5 -62t-25.5 -61.5t-61.5 -25.5t-61.5 25.5t-25.5 61.5zM788 297q0 36 25.5 61.5t61.5 25.5t61.5 -25.5t25.5 -61.5t-25.5 -61.5t-61.5 -25.5
t-61.5 25.5t-25.5 61.5zM788 1346q0 36 25.5 62t61.5 26t61.5 -26t25.5 -62t-25.5 -61.5t-61.5 -25.5t-61.5 25.5t-25.5 61.5zM1002 87q0 36 26 62t62 26t61.5 -26t25.5 -62t-25.5 -61.5t-61.5 -25.5t-62 25.5t-26 61.5zM1002 507q0 36 26 61.5t62 25.5t61.5 -25.5
t25.5 -61.5t-25.5 -61.5t-61.5 -25.5t-62 25.5t-26 61.5zM1002 717q0 36 26 61.5t62 25.5t61.5 -25.5t25.5 -61.5t-25.5 -61.5t-61.5 -25.5t-62 25.5t-26 61.5zM1002 927q0 36 26 61.5t62 25.5t61.5 -25.5t25.5 -61.5t-25.5 -62t-61.5 -26t-62 26t-26 62zM1002 1136
q0 36 26 62t62 26t61.5 -26t25.5 -62t-25.5 -61.5t-61.5 -25.5t-62 25.5t-26 61.5z" />
    <glyph glyph-name="R" unicode="R" 
d="M143 87q0 36 26 62t62 26t61.5 -26t25.5 -62t-25.5 -61.5t-61.5 -25.5t-62 25.5t-26 61.5zM143 297q0 36 26 61.5t62 25.5t61.5 -25.5t25.5 -61.5t-25.5 -61.5t-61.5 -25.5t-62 25.5t-26 61.5zM143 507q0 36 26 61.5t62 25.5t61.5 -25.5t25.5 -61.5t-25.5 -61.5
t-61.5 -25.5t-62 25.5t-26 61.5zM143 717q0 36 26 61.5t62 25.5t61.5 -25.5t25.5 -61.5t-25.5 -61.5t-61.5 -25.5t-62 25.5t-26 61.5zM143 927q0 36 26 61.5t62 25.5t61.5 -25.5t25.5 -61.5t-25.5 -62t-61.5 -26t-62 26t-26 62zM143 1136q0 36 26 62t62 26t61.5 -26
t25.5 -62t-25.5 -61.5t-61.5 -25.5t-62 25.5t-26 61.5zM143 1346q0 36 26 62t62 26t61.5 -26t25.5 -62t-25.5 -61.5t-61.5 -25.5t-62 25.5t-26 61.5zM358 717q0 36 25.5 61.5t61.5 25.5t62 -25.5t26 -61.5t-26 -61.5t-62 -25.5t-61.5 25.5t-25.5 61.5zM358 1346
q0 36 25.5 62t61.5 26t62 -26t26 -62t-26 -61.5t-62 -25.5t-61.5 25.5t-25.5 61.5zM573 507q0 36 25.5 61.5t61.5 25.5t61.5 -25.5t25.5 -61.5t-25.5 -61.5t-61.5 -25.5t-61.5 25.5t-25.5 61.5zM573 717q0 36 25.5 61.5t61.5 25.5t61.5 -25.5t25.5 -61.5t-25.5 -61.5
t-61.5 -25.5t-61.5 25.5t-25.5 61.5zM573 1346q0 36 25.5 62t61.5 26t61.5 -26t25.5 -62t-25.5 -61.5t-61.5 -25.5t-61.5 25.5t-25.5 61.5zM788 297q0 36 25.5 61.5t61.5 25.5t61.5 -25.5t25.5 -61.5t-25.5 -61.5t-61.5 -25.5t-61.5 25.5t-25.5 61.5zM788 717
q0 36 25.5 61.5t61.5 25.5t61.5 -25.5t25.5 -61.5t-25.5 -61.5t-61.5 -25.5t-61.5 25.5t-25.5 61.5zM788 1346q0 36 25.5 62t61.5 26t61.5 -26t25.5 -62t-25.5 -61.5t-61.5 -25.5t-61.5 25.5t-25.5 61.5zM1002 87q0 36 26 62t62 26t61.5 -26t25.5 -62t-25.5 -61.5
t-61.5 -25.5t-62 25.5t-26 61.5zM1002 927q0 36 26 61.5t62 25.5t61.5 -25.5t25.5 -61.5t-25.5 -62t-61.5 -26t-62 26t-26 62zM1002 1136q0 36 26 62t62 26t61.5 -26t25.5 -62t-25.5 -61.5t-61.5 -25.5t-62 25.5t-26 61.5z" />
    <glyph glyph-name="S" unicode="S" 
d="M143 297q0 36 26 61.5t62 25.5t61.5 -25.5t25.5 -61.5t-25.5 -61.5t-61.5 -25.5t-62 25.5t-26 61.5zM143 927q0 36 26 61.5t62 25.5t61.5 -25.5t25.5 -61.5t-25.5 -62t-61.5 -26t-62 26t-26 62zM143 1136q0 36 26 62t62 26t61.5 -26t25.5 -62t-25.5 -61.5t-61.5 -25.5
t-62 25.5t-26 61.5zM358 87q0 36 25.5 62t61.5 26t62 -26t26 -62t-26 -61.5t-62 -25.5t-61.5 25.5t-25.5 61.5zM358 717q0 36 25.5 61.5t61.5 25.5t62 -25.5t26 -61.5t-26 -61.5t-62 -25.5t-61.5 25.5t-25.5 61.5zM358 1346q0 36 25.5 62t61.5 26t62 -26t26 -62t-26 -61.5
t-62 -25.5t-61.5 25.5t-25.5 61.5zM573 87q0 36 25.5 62t61.5 26t61.5 -26t25.5 -62t-25.5 -61.5t-61.5 -25.5t-61.5 25.5t-25.5 61.5zM573 717q0 36 25.5 61.5t61.5 25.5t61.5 -25.5t25.5 -61.5t-25.5 -61.5t-61.5 -25.5t-61.5 25.5t-25.5 61.5zM573 1346q0 36 25.5 62
t61.5 26t61.5 -26t25.5 -62t-25.5 -61.5t-61.5 -25.5t-61.5 25.5t-25.5 61.5zM788 87q0 36 25.5 62t61.5 26t61.5 -26t25.5 -62t-25.5 -61.5t-61.5 -25.5t-61.5 25.5t-25.5 61.5zM788 717q0 36 25.5 61.5t61.5 25.5t61.5 -25.5t25.5 -61.5t-25.5 -61.5t-61.5 -25.5
t-61.5 25.5t-25.5 61.5zM788 1346q0 36 25.5 62t61.5 26t61.5 -26t25.5 -62t-25.5 -61.5t-61.5 -25.5t-61.5 25.5t-25.5 61.5zM1002 297q0 36 26 61.5t62 25.5t61.5 -25.5t25.5 -61.5t-25.5 -61.5t-61.5 -25.5t-62 25.5t-26 61.5zM1002 507q0 36 26 61.5t62 25.5t61.5 -25.5
t25.5 -61.5t-25.5 -61.5t-61.5 -25.5t-62 25.5t-26 61.5zM1002 1136q0 36 26 62t62 26t61.5 -26t25.5 -62t-25.5 -61.5t-61.5 -25.5t-62 25.5t-26 61.5z" />
    <glyph glyph-name="T" unicode="T" 
d="M143 1346q0 36 26 62t62 26t61.5 -26t25.5 -62t-25.5 -61.5t-61.5 -25.5t-62 25.5t-26 61.5zM358 1346q0 36 25.5 62t61.5 26t62 -26t26 -62t-26 -61.5t-62 -25.5t-61.5 25.5t-25.5 61.5zM573 87q0 36 25.5 62t61.5 26t61.5 -26t25.5 -62t-25.5 -61.5t-61.5 -25.5
t-61.5 25.5t-25.5 61.5zM573 297q0 36 25.5 61.5t61.5 25.5t61.5 -25.5t25.5 -61.5t-25.5 -61.5t-61.5 -25.5t-61.5 25.5t-25.5 61.5zM573 507q0 36 25.5 61.5t61.5 25.5t61.5 -25.5t25.5 -61.5t-25.5 -61.5t-61.5 -25.5t-61.5 25.5t-25.5 61.5zM573 717q0 36 25.5 61.5
t61.5 25.5t61.5 -25.5t25.5 -61.5t-25.5 -61.5t-61.5 -25.5t-61.5 25.5t-25.5 61.5zM573 927q0 36 25.5 61.5t61.5 25.5t61.5 -25.5t25.5 -61.5t-25.5 -62t-61.5 -26t-61.5 26t-25.5 62zM573 1136q0 36 25.5 62t61.5 26t61.5 -26t25.5 -62t-25.5 -61.5t-61.5 -25.5
t-61.5 25.5t-25.5 61.5zM573 1346q0 36 25.5 62t61.5 26t61.5 -26t25.5 -62t-25.5 -61.5t-61.5 -25.5t-61.5 25.5t-25.5 61.5zM788 1346q0 36 25.5 62t61.5 26t61.5 -26t25.5 -62t-25.5 -61.5t-61.5 -25.5t-61.5 25.5t-25.5 61.5zM1002 1346q0 36 26 62t62 26t61.5 -26
t25.5 -62t-25.5 -61.5t-61.5 -25.5t-62 25.5t-26 61.5z" />
    <glyph glyph-name="U" unicode="U" 
d="M143 297q0 36 26 61.5t62 25.5t61.5 -25.5t25.5 -61.5t-25.5 -61.5t-61.5 -25.5t-62 25.5t-26 61.5zM143 507q0 36 26 61.5t62 25.5t61.5 -25.5t25.5 -61.5t-25.5 -61.5t-61.5 -25.5t-62 25.5t-26 61.5zM143 717q0 36 26 61.5t62 25.5t61.5 -25.5t25.5 -61.5t-25.5 -61.5
t-61.5 -25.5t-62 25.5t-26 61.5zM143 927q0 36 26 61.5t62 25.5t61.5 -25.5t25.5 -61.5t-25.5 -62t-61.5 -26t-62 26t-26 62zM143 1136q0 36 26 62t62 26t61.5 -26t25.5 -62t-25.5 -61.5t-61.5 -25.5t-62 25.5t-26 61.5zM143 1346q0 36 26 62t62 26t61.5 -26t25.5 -62
t-25.5 -61.5t-61.5 -25.5t-62 25.5t-26 61.5zM358 87q0 36 25.5 62t61.5 26t62 -26t26 -62t-26 -61.5t-62 -25.5t-61.5 25.5t-25.5 61.5zM573 87q0 36 25.5 62t61.5 26t61.5 -26t25.5 -62t-25.5 -61.5t-61.5 -25.5t-61.5 25.5t-25.5 61.5zM788 87q0 36 25.5 62t61.5 26
t61.5 -26t25.5 -62t-25.5 -61.5t-61.5 -25.5t-61.5 25.5t-25.5 61.5zM1002 297q0 36 26 61.5t62 25.5t61.5 -25.5t25.5 -61.5t-25.5 -61.5t-61.5 -25.5t-62 25.5t-26 61.5zM1002 507q0 36 26 61.5t62 25.5t61.5 -25.5t25.5 -61.5t-25.5 -61.5t-61.5 -25.5t-62 25.5t-26 61.5
zM1002 717q0 36 26 61.5t62 25.5t61.5 -25.5t25.5 -61.5t-25.5 -61.5t-61.5 -25.5t-62 25.5t-26 61.5zM1002 927q0 36 26 61.5t62 25.5t61.5 -25.5t25.5 -61.5t-25.5 -62t-61.5 -26t-62 26t-26 62zM1002 1136q0 36 26 62t62 26t61.5 -26t25.5 -62t-25.5 -61.5t-61.5 -25.5
t-62 25.5t-26 61.5zM1002 1346q0 36 26 62t62 26t61.5 -26t25.5 -62t-25.5 -61.5t-61.5 -25.5t-62 25.5t-26 61.5z" />
    <glyph glyph-name="U" unicode="&#xdb;" 
d="M143 297q0 36 26 61.5t62 25.5t61.5 -25.5t25.5 -61.5t-25.5 -61.5t-61.5 -25.5t-62 25.5t-26 61.5zM143 507q0 36 26 61.5t62 25.5t61.5 -25.5t25.5 -61.5t-25.5 -61.5t-61.5 -25.5t-62 25.5t-26 61.5zM143 717q0 36 26 61.5t62 25.5t61.5 -25.5t25.5 -61.5t-25.5 -61.5
t-61.5 -25.5t-62 25.5t-26 61.5zM143 927q0 36 26 61.5t62 25.5t61.5 -25.5t25.5 -61.5t-25.5 -62t-61.5 -26t-62 26t-26 62zM143 1136q0 36 26 62t62 26t61.5 -26t25.5 -62t-25.5 -61.5t-61.5 -25.5t-62 25.5t-26 61.5zM143 1346q0 36 26 62t62 26t61.5 -26t25.5 -62
t-25.5 -61.5t-61.5 -25.5t-62 25.5t-26 61.5zM358 87q0 36 25.5 62t61.5 26t62 -26t26 -62t-26 -61.5t-62 -25.5t-61.5 25.5t-25.5 61.5zM573 87q0 36 25.5 62t61.5 26t61.5 -26t25.5 -62t-25.5 -61.5t-61.5 -25.5t-61.5 25.5t-25.5 61.5zM788 87q0 36 25.5 62t61.5 26
t61.5 -26t25.5 -62t-25.5 -61.5t-61.5 -25.5t-61.5 25.5t-25.5 61.5zM1002 297q0 36 26 61.5t62 25.5t61.5 -25.5t25.5 -61.5t-25.5 -61.5t-61.5 -25.5t-62 25.5t-26 61.5zM1002 507q0 36 26 61.5t62 25.5t61.5 -25.5t25.5 -61.5t-25.5 -61.5t-61.5 -25.5t-62 25.5t-26 61.5
zM1002 717q0 36 26 61.5t62 25.5t61.5 -25.5t25.5 -61.5t-25.5 -61.5t-61.5 -25.5t-62 25.5t-26 61.5zM1002 927q0 36 26 61.5t62 25.5t61.5 -25.5t25.5 -61.5t-25.5 -62t-61.5 -26t-62 26t-26 62zM1002 1136q0 36 26 62t62 26t61.5 -26t25.5 -62t-25.5 -61.5t-61.5 -25.5
t-62 25.5t-26 61.5zM1002 1346q0 36 26 62t62 26t61.5 -26t25.5 -62t-25.5 -61.5t-61.5 -25.5t-62 25.5t-26 61.5z" />
    <glyph glyph-name="U" unicode="&#xda;" 
d="M143 297q0 36 26 61.5t62 25.5t61.5 -25.5t25.5 -61.5t-25.5 -61.5t-61.5 -25.5t-62 25.5t-26 61.5zM143 507q0 36 26 61.5t62 25.5t61.5 -25.5t25.5 -61.5t-25.5 -61.5t-61.5 -25.5t-62 25.5t-26 61.5zM143 717q0 36 26 61.5t62 25.5t61.5 -25.5t25.5 -61.5t-25.5 -61.5
t-61.5 -25.5t-62 25.5t-26 61.5zM143 927q0 36 26 61.5t62 25.5t61.5 -25.5t25.5 -61.5t-25.5 -62t-61.5 -26t-62 26t-26 62zM143 1136q0 36 26 62t62 26t61.5 -26t25.5 -62t-25.5 -61.5t-61.5 -25.5t-62 25.5t-26 61.5zM143 1346q0 36 26 62t62 26t61.5 -26t25.5 -62
t-25.5 -61.5t-61.5 -25.5t-62 25.5t-26 61.5zM358 87q0 36 25.5 62t61.5 26t62 -26t26 -62t-26 -61.5t-62 -25.5t-61.5 25.5t-25.5 61.5zM573 87q0 36 25.5 62t61.5 26t61.5 -26t25.5 -62t-25.5 -61.5t-61.5 -25.5t-61.5 25.5t-25.5 61.5zM788 87q0 36 25.5 62t61.5 26
t61.5 -26t25.5 -62t-25.5 -61.5t-61.5 -25.5t-61.5 25.5t-25.5 61.5zM1002 297q0 36 26 61.5t62 25.5t61.5 -25.5t25.5 -61.5t-25.5 -61.5t-61.5 -25.5t-62 25.5t-26 61.5zM1002 507q0 36 26 61.5t62 25.5t61.5 -25.5t25.5 -61.5t-25.5 -61.5t-61.5 -25.5t-62 25.5t-26 61.5
zM1002 717q0 36 26 61.5t62 25.5t61.5 -25.5t25.5 -61.5t-25.5 -61.5t-61.5 -25.5t-62 25.5t-26 61.5zM1002 927q0 36 26 61.5t62 25.5t61.5 -25.5t25.5 -61.5t-25.5 -62t-61.5 -26t-62 26t-26 62zM1002 1136q0 36 26 62t62 26t61.5 -26t25.5 -62t-25.5 -61.5t-61.5 -25.5
t-62 25.5t-26 61.5zM1002 1346q0 36 26 62t62 26t61.5 -26t25.5 -62t-25.5 -61.5t-61.5 -25.5t-62 25.5t-26 61.5z" />
    <glyph glyph-name="U" unicode="&#xd9;" 
d="M143 297q0 36 26 61.5t62 25.5t61.5 -25.5t25.5 -61.5t-25.5 -61.5t-61.5 -25.5t-62 25.5t-26 61.5zM143 507q0 36 26 61.5t62 25.5t61.5 -25.5t25.5 -61.5t-25.5 -61.5t-61.5 -25.5t-62 25.5t-26 61.5zM143 717q0 36 26 61.5t62 25.5t61.5 -25.5t25.5 -61.5t-25.5 -61.5
t-61.5 -25.5t-62 25.5t-26 61.5zM143 927q0 36 26 61.5t62 25.5t61.5 -25.5t25.5 -61.5t-25.5 -62t-61.5 -26t-62 26t-26 62zM143 1136q0 36 26 62t62 26t61.5 -26t25.5 -62t-25.5 -61.5t-61.5 -25.5t-62 25.5t-26 61.5zM143 1346q0 36 26 62t62 26t61.5 -26t25.5 -62
t-25.5 -61.5t-61.5 -25.5t-62 25.5t-26 61.5zM358 87q0 36 25.5 62t61.5 26t62 -26t26 -62t-26 -61.5t-62 -25.5t-61.5 25.5t-25.5 61.5zM573 87q0 36 25.5 62t61.5 26t61.5 -26t25.5 -62t-25.5 -61.5t-61.5 -25.5t-61.5 25.5t-25.5 61.5zM788 87q0 36 25.5 62t61.5 26
t61.5 -26t25.5 -62t-25.5 -61.5t-61.5 -25.5t-61.5 25.5t-25.5 61.5zM1002 297q0 36 26 61.5t62 25.5t61.5 -25.5t25.5 -61.5t-25.5 -61.5t-61.5 -25.5t-62 25.5t-26 61.5zM1002 507q0 36 26 61.5t62 25.5t61.5 -25.5t25.5 -61.5t-25.5 -61.5t-61.5 -25.5t-62 25.5t-26 61.5
zM1002 717q0 36 26 61.5t62 25.5t61.5 -25.5t25.5 -61.5t-25.5 -61.5t-61.5 -25.5t-62 25.5t-26 61.5zM1002 927q0 36 26 61.5t62 25.5t61.5 -25.5t25.5 -61.5t-25.5 -62t-61.5 -26t-62 26t-26 62zM1002 1136q0 36 26 62t62 26t61.5 -26t25.5 -62t-25.5 -61.5t-61.5 -25.5
t-62 25.5t-26 61.5zM1002 1346q0 36 26 62t62 26t61.5 -26t25.5 -62t-25.5 -61.5t-61.5 -25.5t-62 25.5t-26 61.5z" />
    <glyph glyph-name="V" unicode="V" 
d="M143 507q0 36 26 61.5t62 25.5t61.5 -25.5t25.5 -61.5t-25.5 -61.5t-61.5 -25.5t-62 25.5t-26 61.5zM143 717q0 36 26 61.5t62 25.5t61.5 -25.5t25.5 -61.5t-25.5 -61.5t-61.5 -25.5t-62 25.5t-26 61.5zM143 927q0 36 26 61.5t62 25.5t61.5 -25.5t25.5 -61.5t-25.5 -62
t-61.5 -26t-62 26t-26 62zM143 1136q0 36 26 62t62 26t61.5 -26t25.5 -62t-25.5 -61.5t-61.5 -25.5t-62 25.5t-26 61.5zM143 1346q0 36 26 62t62 26t61.5 -26t25.5 -62t-25.5 -61.5t-61.5 -25.5t-62 25.5t-26 61.5zM358 297q0 36 25.5 61.5t61.5 25.5t62 -25.5t26 -61.5
t-26 -61.5t-62 -25.5t-61.5 25.5t-25.5 61.5zM573 87q0 36 25.5 62t61.5 26t61.5 -26t25.5 -62t-25.5 -61.5t-61.5 -25.5t-61.5 25.5t-25.5 61.5zM788 297q0 36 25.5 61.5t61.5 25.5t61.5 -25.5t25.5 -61.5t-25.5 -61.5t-61.5 -25.5t-61.5 25.5t-25.5 61.5zM1002 507
q0 36 26 61.5t62 25.5t61.5 -25.5t25.5 -61.5t-25.5 -61.5t-61.5 -25.5t-62 25.5t-26 61.5zM1002 717q0 36 26 61.5t62 25.5t61.5 -25.5t25.5 -61.5t-25.5 -61.5t-61.5 -25.5t-62 25.5t-26 61.5zM1002 927q0 36 26 61.5t62 25.5t61.5 -25.5t25.5 -61.5t-25.5 -62t-61.5 -26
t-62 26t-26 62zM1002 1136q0 36 26 62t62 26t61.5 -26t25.5 -62t-25.5 -61.5t-61.5 -25.5t-62 25.5t-26 61.5zM1002 1346q0 36 26 62t62 26t61.5 -26t25.5 -62t-25.5 -61.5t-61.5 -25.5t-62 25.5t-26 61.5z" />
    <glyph glyph-name="W" unicode="W" 
d="M143 87q0 36 26 62t62 26t61.5 -26t25.5 -62t-25.5 -61.5t-61.5 -25.5t-62 25.5t-26 61.5zM143 297q0 36 26 61.5t62 25.5t61.5 -25.5t25.5 -61.5t-25.5 -61.5t-61.5 -25.5t-62 25.5t-26 61.5zM143 507q0 36 26 61.5t62 25.5t61.5 -25.5t25.5 -61.5t-25.5 -61.5
t-61.5 -25.5t-62 25.5t-26 61.5zM143 717q0 36 26 61.5t62 25.5t61.5 -25.5t25.5 -61.5t-25.5 -61.5t-61.5 -25.5t-62 25.5t-26 61.5zM143 927q0 36 26 61.5t62 25.5t61.5 -25.5t25.5 -61.5t-25.5 -62t-61.5 -26t-62 26t-26 62zM143 1136q0 36 26 62t62 26t61.5 -26
t25.5 -62t-25.5 -61.5t-61.5 -25.5t-62 25.5t-26 61.5zM143 1346q0 36 26 62t62 26t61.5 -26t25.5 -62t-25.5 -61.5t-61.5 -25.5t-62 25.5t-26 61.5zM358 297q0 36 25.5 61.5t61.5 25.5t62 -25.5t26 -61.5t-26 -61.5t-62 -25.5t-61.5 25.5t-25.5 61.5zM573 507
q0 36 25.5 61.5t61.5 25.5t61.5 -25.5t25.5 -61.5t-25.5 -61.5t-61.5 -25.5t-61.5 25.5t-25.5 61.5zM573 717q0 36 25.5 61.5t61.5 25.5t61.5 -25.5t25.5 -61.5t-25.5 -61.5t-61.5 -25.5t-61.5 25.5t-25.5 61.5zM788 297q0 36 25.5 61.5t61.5 25.5t61.5 -25.5t25.5 -61.5
t-25.5 -61.5t-61.5 -25.5t-61.5 25.5t-25.5 61.5zM1002 87q0 36 26 62t62 26t61.5 -26t25.5 -62t-25.5 -61.5t-61.5 -25.5t-62 25.5t-26 61.5zM1002 297q0 36 26 61.5t62 25.5t61.5 -25.5t25.5 -61.5t-25.5 -61.5t-61.5 -25.5t-62 25.5t-26 61.5zM1002 507q0 36 26 61.5
t62 25.5t61.5 -25.5t25.5 -61.5t-25.5 -61.5t-61.5 -25.5t-62 25.5t-26 61.5zM1002 717q0 36 26 61.5t62 25.5t61.5 -25.5t25.5 -61.5t-25.5 -61.5t-61.5 -25.5t-62 25.5t-26 61.5zM1002 927q0 36 26 61.5t62 25.5t61.5 -25.5t25.5 -61.5t-25.5 -62t-61.5 -26t-62 26t-26 62
zM1002 1136q0 36 26 62t62 26t61.5 -26t25.5 -62t-25.5 -61.5t-61.5 -25.5t-62 25.5t-26 61.5zM1002 1346q0 36 26 62t62 26t61.5 -26t25.5 -62t-25.5 -61.5t-61.5 -25.5t-62 25.5t-26 61.5z" />
    <glyph glyph-name="X" unicode="X" 
d="M143 87q0 36 26 62t62 26t61.5 -26t25.5 -62t-25.5 -61.5t-61.5 -25.5t-62 25.5t-26 61.5zM143 297q0 36 26 61.5t62 25.5t61.5 -25.5t25.5 -61.5t-25.5 -61.5t-61.5 -25.5t-62 25.5t-26 61.5zM143 1136q0 36 26 62t62 26t61.5 -26t25.5 -62t-25.5 -61.5t-61.5 -25.5
t-62 25.5t-26 61.5zM143 1346q0 36 26 62t62 26t61.5 -26t25.5 -62t-25.5 -61.5t-61.5 -25.5t-62 25.5t-26 61.5zM358 507q0 36 25.5 61.5t61.5 25.5t62 -25.5t26 -61.5t-26 -61.5t-62 -25.5t-61.5 25.5t-25.5 61.5zM358 927q0 36 25.5 61.5t61.5 25.5t62 -25.5t26 -61.5
t-26 -62t-62 -26t-61.5 26t-25.5 62zM573 717q0 36 25.5 61.5t61.5 25.5t61.5 -25.5t25.5 -61.5t-25.5 -61.5t-61.5 -25.5t-61.5 25.5t-25.5 61.5zM788 507q0 36 25.5 61.5t61.5 25.5t61.5 -25.5t25.5 -61.5t-25.5 -61.5t-61.5 -25.5t-61.5 25.5t-25.5 61.5zM788 927
q0 36 25.5 61.5t61.5 25.5t61.5 -25.5t25.5 -61.5t-25.5 -62t-61.5 -26t-61.5 26t-25.5 62zM1002 87q0 36 26 62t62 26t61.5 -26t25.5 -62t-25.5 -61.5t-61.5 -25.5t-62 25.5t-26 61.5zM1002 297q0 36 26 61.5t62 25.5t61.5 -25.5t25.5 -61.5t-25.5 -61.5t-61.5 -25.5
t-62 25.5t-26 61.5zM1002 1136q0 36 26 62t62 26t61.5 -26t25.5 -62t-25.5 -61.5t-61.5 -25.5t-62 25.5t-26 61.5zM1002 1346q0 36 26 62t62 26t61.5 -26t25.5 -62t-25.5 -61.5t-61.5 -25.5t-62 25.5t-26 61.5z" />
    <glyph glyph-name="Y" unicode="Y" 
d="M143 927q0 36 26 61.5t62 25.5t61.5 -25.5t25.5 -61.5t-25.5 -62t-61.5 -26t-62 26t-26 62zM143 1136q0 36 26 62t62 26t61.5 -26t25.5 -62t-25.5 -61.5t-61.5 -25.5t-62 25.5t-26 61.5zM143 1346q0 36 26 62t62 26t61.5 -26t25.5 -62t-25.5 -61.5t-61.5 -25.5t-62 25.5
t-26 61.5zM358 717q0 36 25.5 61.5t61.5 25.5t62 -25.5t26 -61.5t-26 -61.5t-62 -25.5t-61.5 25.5t-25.5 61.5zM573 87q0 36 25.5 62t61.5 26t61.5 -26t25.5 -62t-25.5 -61.5t-61.5 -25.5t-61.5 25.5t-25.5 61.5zM573 297q0 36 25.5 61.5t61.5 25.5t61.5 -25.5t25.5 -61.5
t-25.5 -61.5t-61.5 -25.5t-61.5 25.5t-25.5 61.5zM573 507q0 36 25.5 61.5t61.5 25.5t61.5 -25.5t25.5 -61.5t-25.5 -61.5t-61.5 -25.5t-61.5 25.5t-25.5 61.5zM788 717q0 36 25.5 61.5t61.5 25.5t61.5 -25.5t25.5 -61.5t-25.5 -61.5t-61.5 -25.5t-61.5 25.5t-25.5 61.5z
M1002 927q0 36 26 61.5t62 25.5t61.5 -25.5t25.5 -61.5t-25.5 -62t-61.5 -26t-62 26t-26 62zM1002 1136q0 36 26 62t62 26t61.5 -26t25.5 -62t-25.5 -61.5t-61.5 -25.5t-62 25.5t-26 61.5zM1002 1346q0 36 26 62t62 26t61.5 -26t25.5 -62t-25.5 -61.5t-61.5 -25.5t-62 25.5
t-26 61.5z" />
    <glyph glyph-name="Z" unicode="Z" 
d="M143 87q0 36 26 62t62 26t61.5 -26t25.5 -62t-25.5 -61.5t-61.5 -25.5t-62 25.5t-26 61.5zM143 297q0 36 26 61.5t62 25.5t61.5 -25.5t25.5 -61.5t-25.5 -61.5t-61.5 -25.5t-62 25.5t-26 61.5zM143 1346q0 36 26 62t62 26t61.5 -26t25.5 -62t-25.5 -61.5t-61.5 -25.5
t-62 25.5t-26 61.5zM358 87q0 36 25.5 62t61.5 26t62 -26t26 -62t-26 -61.5t-62 -25.5t-61.5 25.5t-25.5 61.5zM358 507q0 36 25.5 61.5t61.5 25.5t62 -25.5t26 -61.5t-26 -61.5t-62 -25.5t-61.5 25.5t-25.5 61.5zM358 1346q0 36 25.5 62t61.5 26t62 -26t26 -62t-26 -61.5
t-62 -25.5t-61.5 25.5t-25.5 61.5zM573 87q0 36 25.5 62t61.5 26t61.5 -26t25.5 -62t-25.5 -61.5t-61.5 -25.5t-61.5 25.5t-25.5 61.5zM573 717q0 36 25.5 61.5t61.5 25.5t61.5 -25.5t25.5 -61.5t-25.5 -61.5t-61.5 -25.5t-61.5 25.5t-25.5 61.5zM573 1346q0 36 25.5 62
t61.5 26t61.5 -26t25.5 -62t-25.5 -61.5t-61.5 -25.5t-61.5 25.5t-25.5 61.5zM788 87q0 36 25.5 62t61.5 26t61.5 -26t25.5 -62t-25.5 -61.5t-61.5 -25.5t-61.5 25.5t-25.5 61.5zM788 927q0 36 25.5 61.5t61.5 25.5t61.5 -25.5t25.5 -61.5t-25.5 -62t-61.5 -26t-61.5 26
t-25.5 62zM788 1346q0 36 25.5 62t61.5 26t61.5 -26t25.5 -62t-25.5 -61.5t-61.5 -25.5t-61.5 25.5t-25.5 61.5zM1002 87q0 36 26 62t62 26t61.5 -26t25.5 -62t-25.5 -61.5t-61.5 -25.5t-62 25.5t-26 61.5zM1002 1136q0 36 26 62t62 26t61.5 -26t25.5 -62t-25.5 -61.5
t-61.5 -25.5t-62 25.5t-26 61.5zM1002 1346q0 36 26 62t62 26t61.5 -26t25.5 -62t-25.5 -61.5t-61.5 -25.5t-62 25.5t-26 61.5z" />
    <glyph glyph-name="a" unicode="a" 
d="M150 54q-7 16 -7 33t7 34q12 33 46 47q16 7 34 7q17 0 34 -7q34 -12 48 -46q7 -16 6 -34q0 -17 -7 -34q-13 -34 -47 -48q-16 -7 -33 -6q-17 0 -34 7q-33 13 -47 47zM150 262q-7 16 -7 34q0 17 7 34q12 34 46 48q17 7 34 7t34 -7q34 -12 48 -46q7 -16 6 -34q0 -17 -7 -34
q-13 -34 -47 -48q-17 -7 -33.5 -7t-33.5 7q-33 12 -47 46zM150 472q-7 16 -7 34q0 17 7 34q12 34 46 48q17 7 34 7t34 -7q34 -12 48 -46q7 -16 6 -34q0 -17 -7 -34q-13 -34 -47 -48q-17 -7 -33.5 -7t-33.5 7q-33 12 -47 46zM150 682q-7 16 -7 34q0 17 7 34q12 34 46 48
q16 7 34 6q17 0 34 -7q34 -13 48 -47q7 -16 6 -33q0 -17 -7 -34q-13 -33 -47 -47q-16 -7 -33 -7t-34 7q-33 12 -47 46zM150 892q-7 16 -7 34q0 17 7 34q12 34 46 48q16 7 34 6q17 0 34 -7q34 -13 48 -47q7 -16 6 -33q0 -17 -7 -34q-13 -33 -47 -47q-16 -7 -33 -7t-34 7
q-33 12 -47 46zM150 1102q-7 16 -7 34q0 17 7 34q12 34 46 48q16 7 34 6q17 0 34 -7q34 -13 48 -47q7 -16 6 -33q0 -17 -7 -34q-13 -33 -47 -47q-16 -7 -33 -7t-34 7q-33 12 -47 46zM358 717q0 36 25.5 61.5t61.5 25.5t62 -25.5t26 -61.5t-26 -61.5t-62 -25.5t-61.5 25.5
t-25.5 61.5zM358 1346q0 36 25.5 62t61.5 26t62 -26t26 -62t-26 -61.5t-62 -25.5t-61.5 25.5t-25.5 61.5zM573 717q0 36 25.5 61.5t61.5 25.5t61.5 -25.5t25.5 -61.5t-25.5 -61.5t-61.5 -25.5t-61.5 25.5t-25.5 61.5zM573 1346q0 36 25.5 62t61.5 26t61.5 -26t25.5 -62
t-25.5 -61.5t-61.5 -25.5t-61.5 25.5t-25.5 61.5zM794 682q-7 16 -7 34q0 17 7 34q12 34 46 48q16 7 34 6q17 0 34 -7q34 -13 48 -47q7 -17 7 -33.5t-7 -33.5q-13 -33 -47 -47q-17 -7 -34 -7l-34 7q-33 12 -47 46zM794 1312q-7 16 -7 34q0 17 7 34q12 34 46 48q16 7 34 6
q17 0 34 -7q34 -13 48 -47q7 -17 7 -33.5t-7 -33.5q-13 -33 -47 -47q-17 -7 -34 -7l-34 7q-33 12 -47 46zM1002 87q0 36 26 62t62 26t61.5 -26t25.5 -62t-25.5 -61.5t-61.5 -25.5t-62 25.5t-26 61.5zM1002 297q0 36 26 61.5t62 25.5t61.5 -25.5t25.5 -61.5t-25.5 -61.5
t-61.5 -25.5t-62 25.5t-26 61.5zM1002 507q0 36 26 61.5t62 25.5t61.5 -25.5t25.5 -61.5t-25.5 -61.5t-61.5 -25.5t-62 25.5t-26 61.5zM1002 717q0 36 26 61.5t62 25.5t61.5 -25.5t25.5 -61.5t-25.5 -61.5t-61.5 -25.5t-62 25.5t-26 61.5zM1002 927q0 36 26 61.5t62 25.5
t61.5 -25.5t25.5 -61.5t-25.5 -62t-61.5 -26t-62 26t-26 62zM1002 1136q0 36 26 62t62 26t61.5 -26t25.5 -62t-25.5 -61.5t-61.5 -25.5t-62 25.5t-26 61.5z" />
    <glyph glyph-name="a" unicode="&#xe4;" 
d="M150 54q-7 16 -7 33t7 34q12 33 46 47q16 7 34 7q17 0 34 -7q34 -12 48 -46q7 -16 6 -34q0 -17 -7 -34q-13 -34 -47 -48q-16 -7 -33 -6q-17 0 -34 7q-33 13 -47 47zM150 262q-7 16 -7 34q0 17 7 34q12 34 46 48q17 7 34 7t34 -7q34 -12 48 -46q7 -16 6 -34q0 -17 -7 -34
q-13 -34 -47 -48q-17 -7 -33.5 -7t-33.5 7q-33 12 -47 46zM150 472q-7 16 -7 34q0 17 7 34q12 34 46 48q17 7 34 7t34 -7q34 -12 48 -46q7 -16 6 -34q0 -17 -7 -34q-13 -34 -47 -48q-17 -7 -33.5 -7t-33.5 7q-33 12 -47 46zM150 682q-7 16 -7 34q0 17 7 34q12 34 46 48
q16 7 34 6q17 0 34 -7q34 -13 48 -47q7 -16 6 -33q0 -17 -7 -34q-13 -33 -47 -47q-16 -7 -33 -7t-34 7q-33 12 -47 46zM150 892q-7 16 -7 34q0 17 7 34q12 34 46 48q16 7 34 6q17 0 34 -7q34 -13 48 -47q7 -16 6 -33q0 -17 -7 -34q-13 -33 -47 -47q-16 -7 -33 -7t-34 7
q-33 12 -47 46zM150 1102q-7 16 -7 34q0 17 7 34q12 34 46 48q16 7 34 6q17 0 34 -7q34 -13 48 -47q7 -16 6 -33q0 -17 -7 -34q-13 -33 -47 -47q-16 -7 -33 -7t-34 7q-33 12 -47 46zM358 717q0 36 25.5 61.5t61.5 25.5t62 -25.5t26 -61.5t-26 -61.5t-62 -25.5t-61.5 25.5
t-25.5 61.5zM358 1346q0 36 25.5 62t61.5 26t62 -26t26 -62t-26 -61.5t-62 -25.5t-61.5 25.5t-25.5 61.5zM573 717q0 36 25.5 61.5t61.5 25.5t61.5 -25.5t25.5 -61.5t-25.5 -61.5t-61.5 -25.5t-61.5 25.5t-25.5 61.5zM573 1346q0 36 25.5 62t61.5 26t61.5 -26t25.5 -62
t-25.5 -61.5t-61.5 -25.5t-61.5 25.5t-25.5 61.5zM794 682q-7 16 -7 34q0 17 7 34q12 34 46 48q16 7 34 6q17 0 34 -7q34 -13 48 -47q7 -17 7 -33.5t-7 -33.5q-13 -33 -47 -47q-17 -7 -34 -7l-34 7q-33 12 -47 46zM794 1312q-7 16 -7 34q0 17 7 34q12 34 46 48q16 7 34 6
q17 0 34 -7q34 -13 48 -47q7 -17 7 -33.5t-7 -33.5q-13 -33 -47 -47q-17 -7 -34 -7l-34 7q-33 12 -47 46zM1002 87q0 36 26 62t62 26t61.5 -26t25.5 -62t-25.5 -61.5t-61.5 -25.5t-62 25.5t-26 61.5zM1002 297q0 36 26 61.5t62 25.5t61.5 -25.5t25.5 -61.5t-25.5 -61.5
t-61.5 -25.5t-62 25.5t-26 61.5zM1002 507q0 36 26 61.5t62 25.5t61.5 -25.5t25.5 -61.5t-25.5 -61.5t-61.5 -25.5t-62 25.5t-26 61.5zM1002 717q0 36 26 61.5t62 25.5t61.5 -25.5t25.5 -61.5t-25.5 -61.5t-61.5 -25.5t-62 25.5t-26 61.5zM1002 927q0 36 26 61.5t62 25.5
t61.5 -25.5t25.5 -61.5t-25.5 -62t-61.5 -26t-62 26t-26 62zM1002 1136q0 36 26 62t62 26t61.5 -26t25.5 -62t-25.5 -61.5t-61.5 -25.5t-62 25.5t-26 61.5z" />
    <glyph glyph-name="a" unicode="&#xe3;" 
d="M150 54q-7 16 -7 33t7 34q12 33 46 47q16 7 34 7q17 0 34 -7q34 -12 48 -46q7 -16 6 -34q0 -17 -7 -34q-13 -34 -47 -48q-16 -7 -33 -6q-17 0 -34 7q-33 13 -47 47zM150 262q-7 16 -7 34q0 17 7 34q12 34 46 48q17 7 34 7t34 -7q34 -12 48 -46q7 -16 6 -34q0 -17 -7 -34
q-13 -34 -47 -48q-17 -7 -33.5 -7t-33.5 7q-33 12 -47 46zM150 472q-7 16 -7 34q0 17 7 34q12 34 46 48q17 7 34 7t34 -7q34 -12 48 -46q7 -16 6 -34q0 -17 -7 -34q-13 -34 -47 -48q-17 -7 -33.5 -7t-33.5 7q-33 12 -47 46zM150 682q-7 16 -7 34q0 17 7 34q12 34 46 48
q16 7 34 6q17 0 34 -7q34 -13 48 -47q7 -16 6 -33q0 -17 -7 -34q-13 -33 -47 -47q-16 -7 -33 -7t-34 7q-33 12 -47 46zM150 892q-7 16 -7 34q0 17 7 34q12 34 46 48q16 7 34 6q17 0 34 -7q34 -13 48 -47q7 -16 6 -33q0 -17 -7 -34q-13 -33 -47 -47q-16 -7 -33 -7t-34 7
q-33 12 -47 46zM150 1102q-7 16 -7 34q0 17 7 34q12 34 46 48q16 7 34 6q17 0 34 -7q34 -13 48 -47q7 -16 6 -33q0 -17 -7 -34q-13 -33 -47 -47q-16 -7 -33 -7t-34 7q-33 12 -47 46zM358 717q0 36 25.5 61.5t61.5 25.5t62 -25.5t26 -61.5t-26 -61.5t-62 -25.5t-61.5 25.5
t-25.5 61.5zM358 1346q0 36 25.5 62t61.5 26t62 -26t26 -62t-26 -61.5t-62 -25.5t-61.5 25.5t-25.5 61.5zM573 717q0 36 25.5 61.5t61.5 25.5t61.5 -25.5t25.5 -61.5t-25.5 -61.5t-61.5 -25.5t-61.5 25.5t-25.5 61.5zM573 1346q0 36 25.5 62t61.5 26t61.5 -26t25.5 -62
t-25.5 -61.5t-61.5 -25.5t-61.5 25.5t-25.5 61.5zM794 682q-7 16 -7 34q0 17 7 34q12 34 46 48q16 7 34 6q17 0 34 -7q34 -13 48 -47q7 -17 7 -33.5t-7 -33.5q-13 -33 -47 -47q-17 -7 -34 -7l-34 7q-33 12 -47 46zM794 1312q-7 16 -7 34q0 17 7 34q12 34 46 48q16 7 34 6
q17 0 34 -7q34 -13 48 -47q7 -17 7 -33.5t-7 -33.5q-13 -33 -47 -47q-17 -7 -34 -7l-34 7q-33 12 -47 46zM1002 87q0 36 26 62t62 26t61.5 -26t25.5 -62t-25.5 -61.5t-61.5 -25.5t-62 25.5t-26 61.5zM1002 297q0 36 26 61.5t62 25.5t61.5 -25.5t25.5 -61.5t-25.5 -61.5
t-61.5 -25.5t-62 25.5t-26 61.5zM1002 507q0 36 26 61.5t62 25.5t61.5 -25.5t25.5 -61.5t-25.5 -61.5t-61.5 -25.5t-62 25.5t-26 61.5zM1002 717q0 36 26 61.5t62 25.5t61.5 -25.5t25.5 -61.5t-25.5 -61.5t-61.5 -25.5t-62 25.5t-26 61.5zM1002 927q0 36 26 61.5t62 25.5
t61.5 -25.5t25.5 -61.5t-25.5 -62t-61.5 -26t-62 26t-26 62zM1002 1136q0 36 26 62t62 26t61.5 -26t25.5 -62t-25.5 -61.5t-61.5 -25.5t-62 25.5t-26 61.5z" />
    <glyph glyph-name="a" unicode="&#xe2;" 
d="M150 54q-7 16 -7 33t7 34q12 33 46 47q16 7 34 7q17 0 34 -7q34 -12 48 -46q7 -16 6 -34q0 -17 -7 -34q-13 -34 -47 -48q-16 -7 -33 -6q-17 0 -34 7q-33 13 -47 47zM150 262q-7 16 -7 34q0 17 7 34q12 34 46 48q17 7 34 7t34 -7q34 -12 48 -46q7 -16 6 -34q0 -17 -7 -34
q-13 -34 -47 -48q-17 -7 -33.5 -7t-33.5 7q-33 12 -47 46zM150 472q-7 16 -7 34q0 17 7 34q12 34 46 48q17 7 34 7t34 -7q34 -12 48 -46q7 -16 6 -34q0 -17 -7 -34q-13 -34 -47 -48q-17 -7 -33.5 -7t-33.5 7q-33 12 -47 46zM150 682q-7 16 -7 34q0 17 7 34q12 34 46 48
q16 7 34 6q17 0 34 -7q34 -13 48 -47q7 -16 6 -33q0 -17 -7 -34q-13 -33 -47 -47q-16 -7 -33 -7t-34 7q-33 12 -47 46zM150 892q-7 16 -7 34q0 17 7 34q12 34 46 48q16 7 34 6q17 0 34 -7q34 -13 48 -47q7 -16 6 -33q0 -17 -7 -34q-13 -33 -47 -47q-16 -7 -33 -7t-34 7
q-33 12 -47 46zM150 1102q-7 16 -7 34q0 17 7 34q12 34 46 48q16 7 34 6q17 0 34 -7q34 -13 48 -47q7 -16 6 -33q0 -17 -7 -34q-13 -33 -47 -47q-16 -7 -33 -7t-34 7q-33 12 -47 46zM358 717q0 36 25.5 61.5t61.5 25.5t62 -25.5t26 -61.5t-26 -61.5t-62 -25.5t-61.5 25.5
t-25.5 61.5zM358 1346q0 36 25.5 62t61.5 26t62 -26t26 -62t-26 -61.5t-62 -25.5t-61.5 25.5t-25.5 61.5zM573 717q0 36 25.5 61.5t61.5 25.5t61.5 -25.5t25.5 -61.5t-25.5 -61.5t-61.5 -25.5t-61.5 25.5t-25.5 61.5zM573 1346q0 36 25.5 62t61.5 26t61.5 -26t25.5 -62
t-25.5 -61.5t-61.5 -25.5t-61.5 25.5t-25.5 61.5zM794 682q-7 16 -7 34q0 17 7 34q12 34 46 48q16 7 34 6q17 0 34 -7q34 -13 48 -47q7 -17 7 -33.5t-7 -33.5q-13 -33 -47 -47q-17 -7 -34 -7l-34 7q-33 12 -47 46zM794 1312q-7 16 -7 34q0 17 7 34q12 34 46 48q16 7 34 6
q17 0 34 -7q34 -13 48 -47q7 -17 7 -33.5t-7 -33.5q-13 -33 -47 -47q-17 -7 -34 -7l-34 7q-33 12 -47 46zM1002 87q0 36 26 62t62 26t61.5 -26t25.5 -62t-25.5 -61.5t-61.5 -25.5t-62 25.5t-26 61.5zM1002 297q0 36 26 61.5t62 25.5t61.5 -25.5t25.5 -61.5t-25.5 -61.5
t-61.5 -25.5t-62 25.5t-26 61.5zM1002 507q0 36 26 61.5t62 25.5t61.5 -25.5t25.5 -61.5t-25.5 -61.5t-61.5 -25.5t-62 25.5t-26 61.5zM1002 717q0 36 26 61.5t62 25.5t61.5 -25.5t25.5 -61.5t-25.5 -61.5t-61.5 -25.5t-62 25.5t-26 61.5zM1002 927q0 36 26 61.5t62 25.5
t61.5 -25.5t25.5 -61.5t-25.5 -62t-61.5 -26t-62 26t-26 62zM1002 1136q0 36 26 62t62 26t61.5 -26t25.5 -62t-25.5 -61.5t-61.5 -25.5t-62 25.5t-26 61.5z" />
    <glyph glyph-name="a" unicode="&#xe1;" 
d="M150 54q-7 16 -7 33t7 34q12 33 46 47q16 7 34 7q17 0 34 -7q34 -12 48 -46q7 -16 6 -34q0 -17 -7 -34q-13 -34 -47 -48q-16 -7 -33 -6q-17 0 -34 7q-33 13 -47 47zM150 262q-7 16 -7 34q0 17 7 34q12 34 46 48q17 7 34 7t34 -7q34 -12 48 -46q7 -16 6 -34q0 -17 -7 -34
q-13 -34 -47 -48q-17 -7 -33.5 -7t-33.5 7q-33 12 -47 46zM150 472q-7 16 -7 34q0 17 7 34q12 34 46 48q17 7 34 7t34 -7q34 -12 48 -46q7 -16 6 -34q0 -17 -7 -34q-13 -34 -47 -48q-17 -7 -33.5 -7t-33.5 7q-33 12 -47 46zM150 682q-7 16 -7 34q0 17 7 34q12 34 46 48
q16 7 34 6q17 0 34 -7q34 -13 48 -47q7 -16 6 -33q0 -17 -7 -34q-13 -33 -47 -47q-16 -7 -33 -7t-34 7q-33 12 -47 46zM150 892q-7 16 -7 34q0 17 7 34q12 34 46 48q16 7 34 6q17 0 34 -7q34 -13 48 -47q7 -16 6 -33q0 -17 -7 -34q-13 -33 -47 -47q-16 -7 -33 -7t-34 7
q-33 12 -47 46zM150 1102q-7 16 -7 34q0 17 7 34q12 34 46 48q16 7 34 6q17 0 34 -7q34 -13 48 -47q7 -16 6 -33q0 -17 -7 -34q-13 -33 -47 -47q-16 -7 -33 -7t-34 7q-33 12 -47 46zM358 717q0 36 25.5 61.5t61.5 25.5t62 -25.5t26 -61.5t-26 -61.5t-62 -25.5t-61.5 25.5
t-25.5 61.5zM358 1346q0 36 25.5 62t61.5 26t62 -26t26 -62t-26 -61.5t-62 -25.5t-61.5 25.5t-25.5 61.5zM573 717q0 36 25.5 61.5t61.5 25.5t61.5 -25.5t25.5 -61.5t-25.5 -61.5t-61.5 -25.5t-61.5 25.5t-25.5 61.5zM573 1346q0 36 25.5 62t61.5 26t61.5 -26t25.5 -62
t-25.5 -61.5t-61.5 -25.5t-61.5 25.5t-25.5 61.5zM794 682q-7 16 -7 34q0 17 7 34q12 34 46 48q16 7 34 6q17 0 34 -7q34 -13 48 -47q7 -17 7 -33.5t-7 -33.5q-13 -33 -47 -47q-17 -7 -34 -7l-34 7q-33 12 -47 46zM794 1312q-7 16 -7 34q0 17 7 34q12 34 46 48q16 7 34 6
q17 0 34 -7q34 -13 48 -47q7 -17 7 -33.5t-7 -33.5q-13 -33 -47 -47q-17 -7 -34 -7l-34 7q-33 12 -47 46zM1002 87q0 36 26 62t62 26t61.5 -26t25.5 -62t-25.5 -61.5t-61.5 -25.5t-62 25.5t-26 61.5zM1002 297q0 36 26 61.5t62 25.5t61.5 -25.5t25.5 -61.5t-25.5 -61.5
t-61.5 -25.5t-62 25.5t-26 61.5zM1002 507q0 36 26 61.5t62 25.5t61.5 -25.5t25.5 -61.5t-25.5 -61.5t-61.5 -25.5t-62 25.5t-26 61.5zM1002 717q0 36 26 61.5t62 25.5t61.5 -25.5t25.5 -61.5t-25.5 -61.5t-61.5 -25.5t-62 25.5t-26 61.5zM1002 927q0 36 26 61.5t62 25.5
t61.5 -25.5t25.5 -61.5t-25.5 -62t-61.5 -26t-62 26t-26 62zM1002 1136q0 36 26 62t62 26t61.5 -26t25.5 -62t-25.5 -61.5t-61.5 -25.5t-62 25.5t-26 61.5z" />
    <glyph glyph-name="a" unicode="&#xe0;" 
d="M150 54q-7 16 -7 33t7 34q12 33 46 47q16 7 34 7q17 0 34 -7q34 -12 48 -46q7 -16 6 -34q0 -17 -7 -34q-13 -34 -47 -48q-16 -7 -33 -6q-17 0 -34 7q-33 13 -47 47zM150 262q-7 16 -7 34q0 17 7 34q12 34 46 48q17 7 34 7t34 -7q34 -12 48 -46q7 -16 6 -34q0 -17 -7 -34
q-13 -34 -47 -48q-17 -7 -33.5 -7t-33.5 7q-33 12 -47 46zM150 472q-7 16 -7 34q0 17 7 34q12 34 46 48q17 7 34 7t34 -7q34 -12 48 -46q7 -16 6 -34q0 -17 -7 -34q-13 -34 -47 -48q-17 -7 -33.5 -7t-33.5 7q-33 12 -47 46zM150 682q-7 16 -7 34q0 17 7 34q12 34 46 48
q16 7 34 6q17 0 34 -7q34 -13 48 -47q7 -16 6 -33q0 -17 -7 -34q-13 -33 -47 -47q-16 -7 -33 -7t-34 7q-33 12 -47 46zM150 892q-7 16 -7 34q0 17 7 34q12 34 46 48q16 7 34 6q17 0 34 -7q34 -13 48 -47q7 -16 6 -33q0 -17 -7 -34q-13 -33 -47 -47q-16 -7 -33 -7t-34 7
q-33 12 -47 46zM150 1102q-7 16 -7 34q0 17 7 34q12 34 46 48q16 7 34 6q17 0 34 -7q34 -13 48 -47q7 -16 6 -33q0 -17 -7 -34q-13 -33 -47 -47q-16 -7 -33 -7t-34 7q-33 12 -47 46zM358 717q0 36 25.5 61.5t61.5 25.5t62 -25.5t26 -61.5t-26 -61.5t-62 -25.5t-61.5 25.5
t-25.5 61.5zM358 1346q0 36 25.5 62t61.5 26t62 -26t26 -62t-26 -61.5t-62 -25.5t-61.5 25.5t-25.5 61.5zM573 717q0 36 25.5 61.5t61.5 25.5t61.5 -25.5t25.5 -61.5t-25.5 -61.5t-61.5 -25.5t-61.5 25.5t-25.5 61.5zM573 1346q0 36 25.5 62t61.5 26t61.5 -26t25.5 -62
t-25.5 -61.5t-61.5 -25.5t-61.5 25.5t-25.5 61.5zM794 682q-7 16 -7 34q0 17 7 34q12 34 46 48q16 7 34 6q17 0 34 -7q34 -13 48 -47q7 -17 7 -33.5t-7 -33.5q-13 -33 -47 -47q-17 -7 -34 -7l-34 7q-33 12 -47 46zM794 1312q-7 16 -7 34q0 17 7 34q12 34 46 48q16 7 34 6
q17 0 34 -7q34 -13 48 -47q7 -17 7 -33.5t-7 -33.5q-13 -33 -47 -47q-17 -7 -34 -7l-34 7q-33 12 -47 46zM1002 87q0 36 26 62t62 26t61.5 -26t25.5 -62t-25.5 -61.5t-61.5 -25.5t-62 25.5t-26 61.5zM1002 297q0 36 26 61.5t62 25.5t61.5 -25.5t25.5 -61.5t-25.5 -61.5
t-61.5 -25.5t-62 25.5t-26 61.5zM1002 507q0 36 26 61.5t62 25.5t61.5 -25.5t25.5 -61.5t-25.5 -61.5t-61.5 -25.5t-62 25.5t-26 61.5zM1002 717q0 36 26 61.5t62 25.5t61.5 -25.5t25.5 -61.5t-25.5 -61.5t-61.5 -25.5t-62 25.5t-26 61.5zM1002 927q0 36 26 61.5t62 25.5
t61.5 -25.5t25.5 -61.5t-25.5 -62t-61.5 -26t-62 26t-26 62zM1002 1136q0 36 26 62t62 26t61.5 -26t25.5 -62t-25.5 -61.5t-61.5 -25.5t-62 25.5t-26 61.5z" />
    <glyph glyph-name="b" unicode="b" 
d="M143 87q0 36 26 62t62 26t61.5 -26t25.5 -62t-25.5 -61.5t-61.5 -25.5t-62 25.5t-26 61.5zM143 297q0 36 26 61.5t62 25.5t61.5 -25.5t25.5 -61.5t-25.5 -61.5t-61.5 -25.5t-62 25.5t-26 61.5zM143 507q0 36 26 61.5t62 25.5t61.5 -25.5t25.5 -61.5t-25.5 -61.5
t-61.5 -25.5t-62 25.5t-26 61.5zM143 717q0 36 26 61.5t62 25.5t61.5 -25.5t25.5 -61.5t-25.5 -61.5t-61.5 -25.5t-62 25.5t-26 61.5zM143 927q0 36 26 61.5t62 25.5t61.5 -25.5t25.5 -61.5t-25.5 -62t-61.5 -26t-62 26t-26 62zM143 1136q0 36 26 62t62 26t61.5 -26
t25.5 -62t-25.5 -61.5t-61.5 -25.5t-62 25.5t-26 61.5zM143 1346q0 36 26 62t62 26t61.5 -26t25.5 -62t-25.5 -61.5t-61.5 -25.5t-62 25.5t-26 61.5zM358 87q0 36 25.5 62t61.5 26t62 -26t26 -62t-26 -61.5t-62 -25.5t-61.5 25.5t-25.5 61.5zM358 717q0 36 25.5 61.5
t61.5 25.5t62 -25.5t26 -61.5t-26 -61.5t-62 -25.5t-61.5 25.5t-25.5 61.5zM358 1346q0 36 25.5 62t61.5 26t62 -26t26 -62t-26 -61.5t-62 -25.5t-61.5 25.5t-25.5 61.5zM573 87q0 36 25.5 62t61.5 26t61.5 -26t25.5 -62t-25.5 -61.5t-61.5 -25.5t-61.5 25.5t-25.5 61.5z
M573 717q0 36 25.5 61.5t61.5 25.5t61.5 -25.5t25.5 -61.5t-25.5 -61.5t-61.5 -25.5t-61.5 25.5t-25.5 61.5zM573 1346q0 36 25.5 62t61.5 26t61.5 -26t25.5 -62t-25.5 -61.5t-61.5 -25.5t-61.5 25.5t-25.5 61.5zM788 87q0 36 25.5 62t61.5 26t61.5 -26t25.5 -62
t-25.5 -61.5t-61.5 -25.5t-61.5 25.5t-25.5 61.5zM788 717q0 36 25.5 61.5t61.5 25.5t61.5 -25.5t25.5 -61.5t-25.5 -61.5t-61.5 -25.5t-61.5 25.5t-25.5 61.5zM788 1346q0 36 25.5 62t61.5 26t61.5 -26t25.5 -62t-25.5 -61.5t-61.5 -25.5t-61.5 25.5t-25.5 61.5zM1003 283
q-1 8 -1 15q0 27 16 50q22 29 58 35q8 1 16 1q27 0 49 -16q29 -21 35 -57l2 -16q0 -27 -17 -49q-21 -29 -57 -35q-8 -1 -16 -1q-28 0 -50 16q-30 21 -35 57zM1003 493q-1 8 -1 15q0 27 16 50q22 29 58 35q8 1 16 1q27 0 49 -16q29 -21 35 -57l2 -16q0 -27 -17 -49
q-21 -29 -57 -35q-8 -1 -16 -1q-28 0 -50 16q-30 21 -35 57zM1003 913q-1 8 -1 15q0 27 16 50q22 29 58 35q8 1 16 1q27 0 49 -16q29 -21 35 -57l2 -16q0 -27 -17 -49q-21 -29 -57 -35q-8 -1 -16 -1q-28 0 -50 16q-30 21 -35 57zM1008 1102q-7 16 -6 34q0 17 7 34
q13 34 47 48q16 7 33 6q17 0 34 -7q33 -13 47 -47q7 -16 7 -33t-7 -34q-12 -33 -46 -47q-16 -7 -34 -7q-17 0 -34 7q-34 12 -48 46z" />
    <glyph glyph-name="c" unicode="c" 
d="M145 283q-1 8 -1 16q0 27 16 49q21 29 57 35l16 2q27 0 49 -17q29 -21 35 -57l2 -16q0 -27 -17 -49q-21 -29 -57 -35q-8 -1 -16 -1q-27 0 -49 16q-29 21 -35 57zM145 493q-1 8 -1 16q0 27 16 49q21 29 57 35l16 2q27 0 49 -17q29 -21 35 -57l2 -16q0 -27 -17 -49
q-21 -29 -57 -35q-8 -1 -16 -1q-27 0 -49 16q-29 21 -35 57zM145 703q-1 8 -1 16q0 27 16 49q21 29 57 35l16 2q27 0 49 -17q29 -21 35 -57l2 -16q0 -27 -17 -49q-21 -29 -57 -35q-8 -1 -16 -1q-27 0 -49 16q-29 21 -35 57zM145 913q-1 8 -1 16q0 27 16 49q21 29 57 35l16 2
q27 0 49 -17q29 -21 35 -57l2 -16q0 -27 -17 -49q-21 -29 -57 -35q-8 -1 -16 -1q-27 0 -49 16q-29 21 -35 57zM145 1123q-1 8 -1 16q0 27 16 49q21 29 57 35q8 1 15 2q27 1 50 -17q29 -22 35 -58l2 -16q0 -27 -17 -49q-21 -29 -57 -35q-8 -1 -15 -1q-27 1 -50 17
q-29 22 -35 57zM358 87q0 36 25.5 62t61.5 26t62 -26t26 -62t-26 -61.5t-62 -25.5t-61.5 25.5t-25.5 61.5zM358 1346q0 36 25.5 62t61.5 26t62 -26t26 -62t-26 -61.5t-62 -25.5t-61.5 25.5t-25.5 61.5zM573 87q0 36 25.5 62t61.5 26t61.5 -26t25.5 -62t-25.5 -61.5
t-61.5 -25.5t-61.5 25.5t-25.5 61.5zM573 1346q0 36 25.5 62t61.5 26t61.5 -26t25.5 -62t-25.5 -61.5t-61.5 -25.5t-61.5 25.5t-25.5 61.5zM789 73q-1 8 -1 16q0 27 16 49q21 29 57 35q8 1 16 1q27 0 49 -16q29 -21 35 -57l2 -16q0 -27 -17 -49q-21 -29 -57 -35
q-8 -1 -16 -1q-27 0 -49 16q-29 21 -35 57zM789 1332q-1 8 -1 16q0 28 16 50q21 30 57 35q8 1 15 1q27 0 50 -16q29 -22 35 -58l2 -16q0 -27 -17 -49q-21 -29 -57 -35q-8 -1 -16 -1q-27 0 -49 16q-29 21 -35 57zM1002 297q0 36 26 61.5t62 25.5t61.5 -25.5t25.5 -61.5
t-25.5 -61.5t-61.5 -25.5t-62 25.5t-26 61.5zM1002 1136q0 36 26 62t62 26t61.5 -26t25.5 -62t-25.5 -61.5t-61.5 -25.5t-62 25.5t-26 61.5z" />
    <glyph glyph-name="d" unicode="d" 
d="M143 87q0 36 26 62t62 26t61.5 -26t25.5 -62t-25.5 -61.5t-61.5 -25.5t-62 25.5t-26 61.5zM143 297q0 36 26 61.5t62 25.5t61.5 -25.5t25.5 -61.5t-25.5 -61.5t-61.5 -25.5t-62 25.5t-26 61.5zM143 507q0 36 26 61.5t62 25.5t61.5 -25.5t25.5 -61.5t-25.5 -61.5
t-61.5 -25.5t-62 25.5t-26 61.5zM143 717q0 36 26 61.5t62 25.5t61.5 -25.5t25.5 -61.5t-25.5 -61.5t-61.5 -25.5t-62 25.5t-26 61.5zM143 927q0 36 26 61.5t62 25.5t61.5 -25.5t25.5 -61.5t-25.5 -62t-61.5 -26t-62 26t-26 62zM143 1136q0 36 26 62t62 26t61.5 -26
t25.5 -62t-25.5 -61.5t-61.5 -25.5t-62 25.5t-26 61.5zM143 1346q0 36 26 62t62 26t61.5 -26t25.5 -62t-25.5 -61.5t-61.5 -25.5t-62 25.5t-26 61.5zM358 87q0 36 25.5 62t61.5 26t62 -26t26 -62t-26 -61.5t-62 -25.5t-61.5 25.5t-25.5 61.5zM358 1346q0 36 25.5 62t61.5 26
t62 -26t26 -62t-26 -61.5t-62 -25.5t-61.5 25.5t-25.5 61.5zM574 73q-1 8 -1 16q0 27 16 49q21 29 57 35q8 1 16 1q27 0 49 -16q29 -21 35 -57l2 -16q0 -27 -17 -49q-21 -29 -57 -35q-8 -1 -16 -1q-27 0 -49 16q-29 21 -35 57zM574 1332q-1 8 -1 16q0 28 16 50q21 30 57 35
q8 1 15 1q27 0 50 -16q29 -22 35 -58l2 -16q0 -27 -17 -49q-21 -29 -57 -35q-8 -1 -16 -1q-27 0 -49 16q-29 21 -35 57zM788 87q0 36 25.5 62t61.5 26t61.5 -26t25.5 -62t-25.5 -61.5t-61.5 -25.5t-61.5 25.5t-25.5 61.5zM788 1346q0 36 25.5 62t61.5 26t61.5 -26t25.5 -62
t-25.5 -61.5t-61.5 -25.5t-61.5 25.5t-25.5 61.5zM1002 297q0 36 26 61.5t62 25.5t61.5 -25.5t25.5 -61.5t-25.5 -61.5t-61.5 -25.5t-62 25.5t-26 61.5zM1002 507q0 36 26 61.5t62 25.5t61.5 -25.5t25.5 -61.5t-25.5 -61.5t-61.5 -25.5t-62 25.5t-26 61.5zM1002 717
q0 36 26 61.5t62 25.5t61.5 -25.5t25.5 -61.5t-25.5 -61.5t-61.5 -25.5t-62 25.5t-26 61.5zM1002 927q0 36 26 61.5t62 25.5t61.5 -25.5t25.5 -61.5t-25.5 -62t-61.5 -26t-62 26t-26 62zM1002 1136q0 36 26 62t62 26t61.5 -26t25.5 -62t-25.5 -61.5t-61.5 -25.5t-62 25.5
t-26 61.5z" />
    <glyph glyph-name="e" unicode="e" 
d="M143 87q0 36 26 62t62 26t61.5 -26t25.5 -62t-25.5 -61.5t-61.5 -25.5t-62 25.5t-26 61.5zM143 297q0 36 26 61.5t62 25.5t61.5 -25.5t25.5 -61.5t-25.5 -61.5t-61.5 -25.5t-62 25.5t-26 61.5zM143 507q0 36 26 61.5t62 25.5t61.5 -25.5t25.5 -61.5t-25.5 -61.5
t-61.5 -25.5t-62 25.5t-26 61.5zM143 717q0 36 26 61.5t62 25.5t61.5 -25.5t25.5 -61.5t-25.5 -61.5t-61.5 -25.5t-62 25.5t-26 61.5zM143 927q0 36 26 61.5t62 25.5t61.5 -25.5t25.5 -61.5t-25.5 -62t-61.5 -26t-62 26t-26 62zM143 1136q0 36 26 62t62 26t61.5 -26
t25.5 -62t-25.5 -61.5t-61.5 -25.5t-62 25.5t-26 61.5zM143 1346q0 36 26 62t62 26t61.5 -26t25.5 -62t-25.5 -61.5t-61.5 -25.5t-62 25.5t-26 61.5zM359 73q-1 8 -1 16q0 27 16 49q21 30 57 36q8 1 15 1q26 -1 50 -17q30 -22 36 -57q1 -8 2 -15q0 -27 -18 -50
q-22 -29 -57 -35q-8 -1 -16 -1q-27 0 -49 16q-29 21 -35 57zM359 703q-1 8 -1 16q0 27 16 49q21 29 57 35q8 1 16 1q27 0 49 -16q30 -21 36 -57q1 -8 2 -15q0 -27 -18 -50q-22 -29 -57 -35q-8 -1 -16 -1q-27 0 -49 16q-29 21 -35 57zM359 1332q-1 8 -1 16q0 28 16 50
q21 30 57 35q8 1 15 1q26 0 50 -16q30 -22 36 -58q1 -8 2 -15q0 -27 -18 -50q-22 -29 -57 -35q-8 -1 -16 -1q-27 0 -49 16q-29 21 -35 57zM573 87q0 36 25.5 62t61.5 26t61.5 -26t25.5 -62t-25.5 -61.5t-61.5 -25.5t-61.5 25.5t-25.5 61.5zM573 717q0 36 25.5 61.5
t61.5 25.5t61.5 -25.5t25.5 -61.5t-25.5 -61.5t-61.5 -25.5t-61.5 25.5t-25.5 61.5zM573 1346q0 36 25.5 62t61.5 26t61.5 -26t25.5 -62t-25.5 -61.5t-61.5 -25.5t-61.5 25.5t-25.5 61.5zM788 87q0 36 25.5 62t61.5 26t61.5 -26t25.5 -62t-25.5 -61.5t-61.5 -25.5
t-61.5 25.5t-25.5 61.5zM788 717q0 36 25.5 61.5t61.5 25.5t61.5 -25.5t25.5 -61.5t-25.5 -61.5t-61.5 -25.5t-61.5 25.5t-25.5 61.5zM788 1346q0 36 25.5 62t61.5 26t61.5 -26t25.5 -62t-25.5 -61.5t-61.5 -25.5t-61.5 25.5t-25.5 61.5zM1004 73q-1 8 -1 16q0 27 16 49
q21 30 57 36q8 1 15 1q27 -1 50 -17q29 -22 35 -57l2 -16q0 -27 -17 -49q-21 -29 -57 -35q-8 -1 -16 -1q-27 0 -49 16q-29 21 -35 57zM1008 1312q-7 16 -6 34q0 17 7 34q13 34 47 48q16 7 33 6q17 0 34 -7q33 -13 47 -47q7 -16 7 -33t-7 -34q-12 -33 -46 -47q-16 -7 -34 -7
q-17 0 -34 7q-34 12 -48 46z" />
    <glyph glyph-name="e" unicode="&#xea;" 
d="M143 87q0 36 26 62t62 26t61.5 -26t25.5 -62t-25.5 -61.5t-61.5 -25.5t-62 25.5t-26 61.5zM143 297q0 36 26 61.5t62 25.5t61.5 -25.5t25.5 -61.5t-25.5 -61.5t-61.5 -25.5t-62 25.5t-26 61.5zM143 507q0 36 26 61.5t62 25.5t61.5 -25.5t25.5 -61.5t-25.5 -61.5
t-61.5 -25.5t-62 25.5t-26 61.5zM143 717q0 36 26 61.5t62 25.5t61.5 -25.5t25.5 -61.5t-25.5 -61.5t-61.5 -25.5t-62 25.5t-26 61.5zM143 927q0 36 26 61.5t62 25.5t61.5 -25.5t25.5 -61.5t-25.5 -62t-61.5 -26t-62 26t-26 62zM143 1136q0 36 26 62t62 26t61.5 -26
t25.5 -62t-25.5 -61.5t-61.5 -25.5t-62 25.5t-26 61.5zM143 1346q0 36 26 62t62 26t61.5 -26t25.5 -62t-25.5 -61.5t-61.5 -25.5t-62 25.5t-26 61.5zM359 73q-1 8 -1 16q0 27 16 49q21 30 57 36q8 1 15 1q26 -1 50 -17q30 -22 36 -57q1 -8 2 -15q0 -27 -18 -50
q-22 -29 -57 -35q-8 -1 -16 -1q-27 0 -49 16q-29 21 -35 57zM359 703q-1 8 -1 16q0 27 16 49q21 29 57 35q8 1 16 1q27 0 49 -16q30 -21 36 -57q1 -8 2 -15q0 -27 -18 -50q-22 -29 -57 -35q-8 -1 -16 -1q-27 0 -49 16q-29 21 -35 57zM359 1332q-1 8 -1 16q0 28 16 50
q21 30 57 35q8 1 15 1q26 0 50 -16q30 -22 36 -58q1 -8 2 -15q0 -27 -18 -50q-22 -29 -57 -35q-8 -1 -16 -1q-27 0 -49 16q-29 21 -35 57zM573 87q0 36 25.5 62t61.5 26t61.5 -26t25.5 -62t-25.5 -61.5t-61.5 -25.5t-61.5 25.5t-25.5 61.5zM573 717q0 36 25.5 61.5
t61.5 25.5t61.5 -25.5t25.5 -61.5t-25.5 -61.5t-61.5 -25.5t-61.5 25.5t-25.5 61.5zM573 1346q0 36 25.5 62t61.5 26t61.5 -26t25.5 -62t-25.5 -61.5t-61.5 -25.5t-61.5 25.5t-25.5 61.5zM788 87q0 36 25.5 62t61.5 26t61.5 -26t25.5 -62t-25.5 -61.5t-61.5 -25.5
t-61.5 25.5t-25.5 61.5zM788 717q0 36 25.5 61.5t61.5 25.5t61.5 -25.5t25.5 -61.5t-25.5 -61.5t-61.5 -25.5t-61.5 25.5t-25.5 61.5zM788 1346q0 36 25.5 62t61.5 26t61.5 -26t25.5 -62t-25.5 -61.5t-61.5 -25.5t-61.5 25.5t-25.5 61.5zM1004 73q-1 8 -1 16q0 27 16 49
q21 30 57 36q8 1 15 1q27 -1 50 -17q29 -22 35 -57l2 -16q0 -27 -17 -49q-21 -29 -57 -35q-8 -1 -16 -1q-27 0 -49 16q-29 21 -35 57zM1008 1312q-7 16 -6 34q0 17 7 34q13 34 47 48q16 7 33 6q17 0 34 -7q33 -13 47 -47q7 -16 7 -33t-7 -34q-12 -33 -46 -47q-16 -7 -34 -7
q-17 0 -34 7q-34 12 -48 46z" />
    <glyph glyph-name="e" unicode="&#xe9;" 
d="M143 87q0 36 26 62t62 26t61.5 -26t25.5 -62t-25.5 -61.5t-61.5 -25.5t-62 25.5t-26 61.5zM143 297q0 36 26 61.5t62 25.5t61.5 -25.5t25.5 -61.5t-25.5 -61.5t-61.5 -25.5t-62 25.5t-26 61.5zM143 507q0 36 26 61.5t62 25.5t61.5 -25.5t25.5 -61.5t-25.5 -61.5
t-61.5 -25.5t-62 25.5t-26 61.5zM143 717q0 36 26 61.5t62 25.5t61.5 -25.5t25.5 -61.5t-25.5 -61.5t-61.5 -25.5t-62 25.5t-26 61.5zM143 927q0 36 26 61.5t62 25.5t61.5 -25.5t25.5 -61.5t-25.5 -62t-61.5 -26t-62 26t-26 62zM143 1136q0 36 26 62t62 26t61.5 -26
t25.5 -62t-25.5 -61.5t-61.5 -25.5t-62 25.5t-26 61.5zM143 1346q0 36 26 62t62 26t61.5 -26t25.5 -62t-25.5 -61.5t-61.5 -25.5t-62 25.5t-26 61.5zM359 73q-1 8 -1 16q0 27 16 49q21 30 57 36q8 1 15 1q26 -1 50 -17q30 -22 36 -57q1 -8 2 -15q0 -27 -18 -50
q-22 -29 -57 -35q-8 -1 -16 -1q-27 0 -49 16q-29 21 -35 57zM359 703q-1 8 -1 16q0 27 16 49q21 29 57 35q8 1 16 1q27 0 49 -16q30 -21 36 -57q1 -8 2 -15q0 -27 -18 -50q-22 -29 -57 -35q-8 -1 -16 -1q-27 0 -49 16q-29 21 -35 57zM359 1332q-1 8 -1 16q0 28 16 50
q21 30 57 35q8 1 15 1q26 0 50 -16q30 -22 36 -58q1 -8 2 -15q0 -27 -18 -50q-22 -29 -57 -35q-8 -1 -16 -1q-27 0 -49 16q-29 21 -35 57zM573 87q0 36 25.5 62t61.5 26t61.5 -26t25.5 -62t-25.5 -61.5t-61.5 -25.5t-61.5 25.5t-25.5 61.5zM573 717q0 36 25.5 61.5
t61.5 25.5t61.5 -25.5t25.5 -61.5t-25.5 -61.5t-61.5 -25.5t-61.5 25.5t-25.5 61.5zM573 1346q0 36 25.5 62t61.5 26t61.5 -26t25.5 -62t-25.5 -61.5t-61.5 -25.5t-61.5 25.5t-25.5 61.5zM788 87q0 36 25.5 62t61.5 26t61.5 -26t25.5 -62t-25.5 -61.5t-61.5 -25.5
t-61.5 25.5t-25.5 61.5zM788 717q0 36 25.5 61.5t61.5 25.5t61.5 -25.5t25.5 -61.5t-25.5 -61.5t-61.5 -25.5t-61.5 25.5t-25.5 61.5zM788 1346q0 36 25.5 62t61.5 26t61.5 -26t25.5 -62t-25.5 -61.5t-61.5 -25.5t-61.5 25.5t-25.5 61.5zM1004 73q-1 8 -1 16q0 27 16 49
q21 30 57 36q8 1 15 1q27 -1 50 -17q29 -22 35 -57l2 -16q0 -27 -17 -49q-21 -29 -57 -35q-8 -1 -16 -1q-27 0 -49 16q-29 21 -35 57zM1008 1312q-7 16 -6 34q0 17 7 34q13 34 47 48q16 7 33 6q17 0 34 -7q33 -13 47 -47q7 -16 7 -33t-7 -34q-12 -33 -46 -47q-16 -7 -34 -7
q-17 0 -34 7q-34 12 -48 46z" />
    <glyph glyph-name="e" unicode="&#xe8;" 
d="M143 87q0 36 26 62t62 26t61.5 -26t25.5 -62t-25.5 -61.5t-61.5 -25.5t-62 25.5t-26 61.5zM143 297q0 36 26 61.5t62 25.5t61.5 -25.5t25.5 -61.5t-25.5 -61.5t-61.5 -25.5t-62 25.5t-26 61.5zM143 507q0 36 26 61.5t62 25.5t61.5 -25.5t25.5 -61.5t-25.5 -61.5
t-61.5 -25.5t-62 25.5t-26 61.5zM143 717q0 36 26 61.5t62 25.5t61.5 -25.5t25.5 -61.5t-25.5 -61.5t-61.5 -25.5t-62 25.5t-26 61.5zM143 927q0 36 26 61.5t62 25.5t61.5 -25.5t25.5 -61.5t-25.5 -62t-61.5 -26t-62 26t-26 62zM143 1136q0 36 26 62t62 26t61.5 -26
t25.5 -62t-25.5 -61.5t-61.5 -25.5t-62 25.5t-26 61.5zM143 1346q0 36 26 62t62 26t61.5 -26t25.5 -62t-25.5 -61.5t-61.5 -25.5t-62 25.5t-26 61.5zM359 73q-1 8 -1 16q0 27 16 49q21 30 57 36q8 1 15 1q26 -1 50 -17q30 -22 36 -57q1 -8 2 -15q0 -27 -18 -50
q-22 -29 -57 -35q-8 -1 -16 -1q-27 0 -49 16q-29 21 -35 57zM359 703q-1 8 -1 16q0 27 16 49q21 29 57 35q8 1 16 1q27 0 49 -16q30 -21 36 -57q1 -8 2 -15q0 -27 -18 -50q-22 -29 -57 -35q-8 -1 -16 -1q-27 0 -49 16q-29 21 -35 57zM359 1332q-1 8 -1 16q0 28 16 50
q21 30 57 35q8 1 15 1q26 0 50 -16q30 -22 36 -58q1 -8 2 -15q0 -27 -18 -50q-22 -29 -57 -35q-8 -1 -16 -1q-27 0 -49 16q-29 21 -35 57zM573 87q0 36 25.5 62t61.5 26t61.5 -26t25.5 -62t-25.5 -61.5t-61.5 -25.5t-61.5 25.5t-25.5 61.5zM573 717q0 36 25.5 61.5
t61.5 25.5t61.5 -25.5t25.5 -61.5t-25.5 -61.5t-61.5 -25.5t-61.5 25.5t-25.5 61.5zM573 1346q0 36 25.5 62t61.5 26t61.5 -26t25.5 -62t-25.5 -61.5t-61.5 -25.5t-61.5 25.5t-25.5 61.5zM788 87q0 36 25.5 62t61.5 26t61.5 -26t25.5 -62t-25.5 -61.5t-61.5 -25.5
t-61.5 25.5t-25.5 61.5zM788 717q0 36 25.5 61.5t61.5 25.5t61.5 -25.5t25.5 -61.5t-25.5 -61.5t-61.5 -25.5t-61.5 25.5t-25.5 61.5zM788 1346q0 36 25.5 62t61.5 26t61.5 -26t25.5 -62t-25.5 -61.5t-61.5 -25.5t-61.5 25.5t-25.5 61.5zM1004 73q-1 8 -1 16q0 27 16 49
q21 30 57 36q8 1 15 1q27 -1 50 -17q29 -22 35 -57l2 -16q0 -27 -17 -49q-21 -29 -57 -35q-8 -1 -16 -1q-27 0 -49 16q-29 21 -35 57zM1008 1312q-7 16 -6 34q0 17 7 34q13 34 47 48q16 7 33 6q17 0 34 -7q33 -13 47 -47q7 -16 7 -33t-7 -34q-12 -33 -46 -47q-16 -7 -34 -7
q-17 0 -34 7q-34 12 -48 46z" />
    <glyph glyph-name="f" unicode="f" 
d="M145 73q-1 8 -1 16q0 27 16 49q21 30 57 36q8 1 15 1q27 0 50 -17q29 -21 35 -57q1 -8 1 -16q0 -26 -16 -49q-21 -29 -57 -35q-8 -1 -16 -1q-26 0 -49 16q-29 21 -35 57zM145 283q-1 8 -1 16q0 26 16 49q21 29 57 35q8 1 16 1q26 0 49 -16q29 -21 35 -57q1 -8 1 -16
q0 -26 -16 -49q-21 -29 -57 -35q-8 -1 -16 -1q-26 0 -49 16q-29 21 -35 57zM145 493q-1 8 -1 16q0 26 16 49q21 29 57 35q8 1 16 1q26 0 49 -16q29 -21 35 -57q1 -8 1 -16q0 -26 -16 -49q-21 -29 -57 -35q-8 -1 -16 -1q-26 0 -49 16q-29 21 -35 57zM145 703q-1 8 -1 16
q0 26 16 49q21 29 57 35q8 1 16 1q26 0 49 -16q29 -21 35 -57q1 -8 1 -16q0 -26 -16 -49q-21 -29 -57 -35q-8 -1 -16 -1q-26 0 -49 16q-29 21 -35 57zM145 913q-1 8 -1 16q0 26 16 49q21 29 57 35q8 1 16 1q26 0 49 -16q29 -21 35 -57q1 -8 1 -16q0 -26 -16 -49
q-21 -29 -57 -35q-8 -1 -16 -1q-26 0 -49 16q-29 21 -35 57zM145 1123q-1 8 -1 16q0 26 16 49q21 29 57 35q8 1 16 1q26 0 49 -16q29 -21 35 -57q1 -8 1 -16q0 -27 -16 -49q-21 -30 -57 -36q-8 -1 -15 -1q-27 0 -50 17q-29 21 -35 57zM145 1332q-1 8 -1 16q0 27 16 50
q21 29 57 35q8 1 15 1q27 0 50 -16q29 -22 35 -58q1 -8 1 -16q0 -26 -16 -49q-21 -29 -57 -35q-8 -1 -16 -1q-26 0 -49 16q-29 21 -35 57zM358 717q0 36 25.5 61.5t61.5 25.5t62 -25.5t26 -61.5t-26 -61.5t-62 -25.5t-61.5 25.5t-25.5 61.5zM358 1346q0 36 25.5 62t61.5 26
t62 -26t26 -62t-26 -61.5t-62 -25.5t-61.5 25.5t-25.5 61.5zM573 717q0 36 25.5 61.5t61.5 25.5t61.5 -25.5t25.5 -61.5t-25.5 -61.5t-61.5 -25.5t-61.5 25.5t-25.5 61.5zM573 1346q0 36 25.5 62t61.5 26t61.5 -26t25.5 -62t-25.5 -61.5t-61.5 -25.5t-61.5 25.5t-25.5 61.5z
M789 703q-1 8 -1 16q0 26 16 49q21 29 57 35q8 1 16 1q26 0 49 -16q29 -21 35 -57q1 -8 1 -16q0 -26 -16 -49q-21 -29 -57 -35q-8 -1 -16 -1q-26 0 -49 16q-29 21 -35 57zM789 1332q-1 8 -1 16q0 27 16 50q21 29 57 35q8 1 15 1q27 0 50 -16q29 -22 35 -58q1 -8 1 -16
q0 -26 -16 -49q-21 -29 -57 -35q-8 -1 -16 -1q-26 0 -49 16q-29 21 -35 57zM1002 1346q0 36 26 62t62 26t61.5 -26t25.5 -62t-25.5 -61.5t-61.5 -25.5t-62 25.5t-26 61.5z" />
    <glyph glyph-name="g" unicode="g" 
d="M143 297q0 36 26 61.5t62 25.5t61.5 -25.5t25.5 -61.5t-25.5 -61.5t-61.5 -25.5t-62 25.5t-26 61.5zM143 507q0 36 26 61.5t62 25.5t61.5 -25.5t25.5 -61.5t-25.5 -61.5t-61.5 -25.5t-62 25.5t-26 61.5zM143 717q0 36 26 61.5t62 25.5t61.5 -25.5t25.5 -61.5t-25.5 -61.5
t-61.5 -25.5t-62 25.5t-26 61.5zM143 927q0 36 26 61.5t62 25.5t61.5 -25.5t25.5 -61.5t-25.5 -62t-61.5 -26t-62 26t-26 62zM143 1136q0 36 26 62t62 26t61.5 -26t25.5 -62t-25.5 -61.5t-61.5 -25.5t-62 25.5t-26 61.5zM358 87q0 36 25.5 62t61.5 26t62 -26t26 -62
t-26 -61.5t-62 -25.5t-61.5 25.5t-25.5 61.5zM358 1346q0 36 25.5 62t61.5 26t62 -26t26 -62t-26 -61.5t-62 -25.5t-61.5 25.5t-25.5 61.5zM574 73q-1 8 -1 16q0 27 16 49q21 30 57 36q8 1 15 1q27 0 50 -17q29 -21 35 -57q1 -8 1 -16q0 -26 -16 -49q-21 -29 -57 -35
q-8 -1 -16 -1q-26 0 -49 16q-29 21 -35 57zM574 703q-1 8 -1 16q0 26 16 49q21 29 57 35q8 1 16 1q26 0 49 -16q29 -21 35 -57q1 -8 1 -16q0 -26 -16 -49q-21 -29 -57 -35q-8 -1 -16 -1q-26 0 -49 16q-29 21 -35 57zM574 1332q-1 8 -1 16q0 27 16 50q21 29 57 35q8 1 15 1
q27 0 50 -16q29 -22 35 -58q1 -8 1 -16q0 -26 -16 -49q-21 -29 -57 -35q-8 -1 -16 -1q-26 0 -49 16q-29 21 -35 57zM788 87q0 36 25.5 62t61.5 26t61.5 -26t25.5 -62t-25.5 -61.5t-61.5 -25.5t-61.5 25.5t-25.5 61.5zM788 717q0 36 25.5 61.5t61.5 25.5t61.5 -25.5
t25.5 -61.5t-25.5 -61.5t-61.5 -25.5t-61.5 25.5t-25.5 61.5zM788 1346q0 36 25.5 62t61.5 26t61.5 -26t25.5 -62t-25.5 -61.5t-61.5 -25.5t-61.5 25.5t-25.5 61.5zM1002 297q0 36 26 61.5t62 25.5t61.5 -25.5t25.5 -61.5t-25.5 -61.5t-61.5 -25.5t-62 25.5t-26 61.5z
M1002 507q0 36 26 61.5t62 25.5t61.5 -25.5t25.5 -61.5t-25.5 -61.5t-61.5 -25.5t-62 25.5t-26 61.5zM1002 717q0 36 26 61.5t62 25.5t61.5 -25.5t25.5 -61.5t-25.5 -61.5t-61.5 -25.5t-62 25.5t-26 61.5zM1002 1136q0 36 26 62t62 26t61.5 -26t25.5 -62t-25.5 -61.5
t-61.5 -25.5t-62 25.5t-26 61.5z" />
    <glyph glyph-name="h" unicode="h" 
d="M143 87q0 36 26 62t62 26t61.5 -26t25.5 -62t-25.5 -61.5t-61.5 -25.5t-62 25.5t-26 61.5zM143 297q0 36 26 61.5t62 25.5t61.5 -25.5t25.5 -61.5t-25.5 -61.5t-61.5 -25.5t-62 25.5t-26 61.5zM143 507q0 36 26 61.5t62 25.5t61.5 -25.5t25.5 -61.5t-25.5 -61.5
t-61.5 -25.5t-62 25.5t-26 61.5zM143 717q0 36 26 61.5t62 25.5t61.5 -25.5t25.5 -61.5t-25.5 -61.5t-61.5 -25.5t-62 25.5t-26 61.5zM143 927q0 36 26 61.5t62 25.5t61.5 -25.5t25.5 -61.5t-25.5 -62t-61.5 -26t-62 26t-26 62zM143 1136q0 36 26 62t62 26t61.5 -26
t25.5 -62t-25.5 -61.5t-61.5 -25.5t-62 25.5t-26 61.5zM143 1346q0 36 26 62t62 26t61.5 -26t25.5 -62t-25.5 -61.5t-61.5 -25.5t-62 25.5t-26 61.5zM359 703q-1 8 -1 15q0 27 16 50q22 29 58 35q8 1 16 1q27 0 49 -16q29 -21 35 -57l2 -16q0 -27 -17 -49q-21 -29 -57 -35
q-8 -1 -16 -1q-28 0 -50 16q-30 21 -35 57zM573 717q0 36 25.5 61.5t61.5 25.5t61.5 -25.5t25.5 -61.5t-25.5 -61.5t-61.5 -25.5t-61.5 25.5t-25.5 61.5zM788 717q0 36 25.5 61.5t61.5 25.5t61.5 -25.5t25.5 -61.5t-25.5 -61.5t-61.5 -25.5t-61.5 25.5t-25.5 61.5zM1004 73
q-1 8 -1 16q0 27 16 49q21 30 57 36q8 1 15 1q27 -1 50 -17q29 -22 35 -57l2 -16q0 -27 -17 -49q-21 -29 -57 -35q-8 -1 -16 -1q-27 0 -49 16q-29 21 -35 57zM1004 283q-1 8 -1 16q0 27 16 49q21 29 57 35q8 1 16 1q27 0 49 -16q29 -21 35 -57l2 -16q0 -27 -17 -49
q-21 -29 -57 -35q-8 -1 -16 -1q-27 0 -49 16q-29 21 -35 57zM1004 493q-1 8 -1 16q0 27 16 49q21 29 57 35q8 1 16 1q27 0 49 -16q29 -21 35 -57l2 -16q0 -27 -17 -49q-21 -29 -57 -35q-8 -1 -16 -1q-27 0 -49 16q-29 21 -35 57zM1004 703q-1 8 -1 16q0 27 16 49
q21 29 57 35q8 1 16 1q27 0 49 -16q29 -21 35 -57l2 -16q0 -27 -17 -49q-21 -29 -57 -35q-8 -1 -16 -1q-27 0 -49 16q-29 21 -35 57zM1004 913q-1 8 -1 16q0 27 16 49q21 29 57 35q8 1 16 1q27 0 49 -16q29 -21 35 -57l2 -16q0 -27 -17 -49q-21 -29 -57 -35q-8 -1 -16 -1
q-27 0 -49 16q-29 21 -35 57zM1004 1123q-1 8 -1 16q0 27 16 49q21 29 57 35q8 1 16 1q27 0 49 -16q29 -21 35 -57l2 -16q0 -27 -17 -49q-21 -29 -57 -35q-8 -1 -16 -1q-27 0 -49 16q-29 21 -35 57zM1008 1312q-7 16 -6 34q0 17 7 34q13 34 47 48q16 7 33 6q17 0 34 -7
q33 -13 47 -47q7 -16 7 -33t-7 -34q-12 -33 -46 -47q-16 -7 -34 -7q-17 0 -34 7q-34 12 -48 46z" />
    <glyph glyph-name="i" unicode="i" horiz-adv-x="890" 
d="M145 73q-1 8 -1 16q0 27 16 49q21 30 57 36q8 1 15 2q27 0 50 -18q29 -22 35 -57l2 -16q0 -27 -17 -49q-21 -29 -57 -35q-8 -1 -16 -1q-27 0 -49 16q-29 21 -35 57zM145 1333q-1 8 -1 16q0 27 16 49q21 29 57 35q8 1 15 1q27 0 50 -16q29 -22 35 -58l2 -16q0 -27 -17 -49
q-21 -29 -57 -35q-8 -1 -15 -1q-27 1 -50 17q-29 22 -35 57zM358 87q0 36 25.5 62t61.5 26t62 -26t26 -62t-26 -61.5t-62 -25.5t-61.5 25.5t-25.5 61.5zM358 297q0 36 25.5 61.5t61.5 25.5t62 -25.5t26 -61.5t-26 -61.5t-62 -25.5t-61.5 25.5t-25.5 61.5zM358 507
q0 36 25.5 61.5t61.5 25.5t62 -25.5t26 -61.5t-26 -61.5t-62 -25.5t-61.5 25.5t-25.5 61.5zM358 717q0 36 25.5 61.5t61.5 25.5t62 -25.5t26 -61.5t-26 -61.5t-62 -25.5t-61.5 25.5t-25.5 61.5zM358 927q0 36 25.5 61.5t61.5 25.5t62 -25.5t26 -61.5t-26 -62t-62 -26
t-61.5 26t-25.5 62zM358 1136q0 36 25.5 62t61.5 26t62 -26t26 -62t-26 -61.5t-62 -25.5t-61.5 25.5t-25.5 61.5zM358 1346q0 36 25.5 62t61.5 26t62 -26t26 -62t-26 -61.5t-62 -25.5t-61.5 25.5t-25.5 61.5zM573 87q0 36 25.5 62t61.5 26t61.5 -26t25.5 -62t-25.5 -61.5
t-61.5 -25.5t-61.5 25.5t-25.5 61.5zM573 1346q0 36 25.5 62t61.5 26t61.5 -26t25.5 -62t-25.5 -61.5t-61.5 -25.5t-61.5 25.5t-25.5 61.5z" />
    <glyph glyph-name="i" unicode="&#xee;" horiz-adv-x="890" 
d="M145 73q-1 8 -1 16q0 27 16 49q21 30 57 36q8 1 15 2q27 0 50 -18q29 -22 35 -57l2 -16q0 -27 -17 -49q-21 -29 -57 -35q-8 -1 -16 -1q-27 0 -49 16q-29 21 -35 57zM145 1333q-1 8 -1 16q0 27 16 49q21 29 57 35q8 1 15 1q27 0 50 -16q29 -22 35 -58l2 -16q0 -27 -17 -49
q-21 -29 -57 -35q-8 -1 -15 -1q-27 1 -50 17q-29 22 -35 57zM358 87q0 36 25.5 62t61.5 26t62 -26t26 -62t-26 -61.5t-62 -25.5t-61.5 25.5t-25.5 61.5zM358 297q0 36 25.5 61.5t61.5 25.5t62 -25.5t26 -61.5t-26 -61.5t-62 -25.5t-61.5 25.5t-25.5 61.5zM358 507
q0 36 25.5 61.5t61.5 25.5t62 -25.5t26 -61.5t-26 -61.5t-62 -25.5t-61.5 25.5t-25.5 61.5zM358 717q0 36 25.5 61.5t61.5 25.5t62 -25.5t26 -61.5t-26 -61.5t-62 -25.5t-61.5 25.5t-25.5 61.5zM358 927q0 36 25.5 61.5t61.5 25.5t62 -25.5t26 -61.5t-26 -62t-62 -26
t-61.5 26t-25.5 62zM358 1136q0 36 25.5 62t61.5 26t62 -26t26 -62t-26 -61.5t-62 -25.5t-61.5 25.5t-25.5 61.5zM358 1346q0 36 25.5 62t61.5 26t62 -26t26 -62t-26 -61.5t-62 -25.5t-61.5 25.5t-25.5 61.5zM573 87q0 36 25.5 62t61.5 26t61.5 -26t25.5 -62t-25.5 -61.5
t-61.5 -25.5t-61.5 25.5t-25.5 61.5zM573 1346q0 36 25.5 62t61.5 26t61.5 -26t25.5 -62t-25.5 -61.5t-61.5 -25.5t-61.5 25.5t-25.5 61.5z" />
    <glyph glyph-name="i" unicode="&#xed;" horiz-adv-x="890" 
d="M145 73q-1 8 -1 16q0 27 16 49q21 30 57 36q8 1 15 2q27 0 50 -18q29 -22 35 -57l2 -16q0 -27 -17 -49q-21 -29 -57 -35q-8 -1 -16 -1q-27 0 -49 16q-29 21 -35 57zM145 1333q-1 8 -1 16q0 27 16 49q21 29 57 35q8 1 15 1q27 0 50 -16q29 -22 35 -58l2 -16q0 -27 -17 -49
q-21 -29 -57 -35q-8 -1 -15 -1q-27 1 -50 17q-29 22 -35 57zM358 87q0 36 25.5 62t61.5 26t62 -26t26 -62t-26 -61.5t-62 -25.5t-61.5 25.5t-25.5 61.5zM358 297q0 36 25.5 61.5t61.5 25.5t62 -25.5t26 -61.5t-26 -61.5t-62 -25.5t-61.5 25.5t-25.5 61.5zM358 507
q0 36 25.5 61.5t61.5 25.5t62 -25.5t26 -61.5t-26 -61.5t-62 -25.5t-61.5 25.5t-25.5 61.5zM358 717q0 36 25.5 61.5t61.5 25.5t62 -25.5t26 -61.5t-26 -61.5t-62 -25.5t-61.5 25.5t-25.5 61.5zM358 927q0 36 25.5 61.5t61.5 25.5t62 -25.5t26 -61.5t-26 -62t-62 -26
t-61.5 26t-25.5 62zM358 1136q0 36 25.5 62t61.5 26t62 -26t26 -62t-26 -61.5t-62 -25.5t-61.5 25.5t-25.5 61.5zM358 1346q0 36 25.5 62t61.5 26t62 -26t26 -62t-26 -61.5t-62 -25.5t-61.5 25.5t-25.5 61.5zM573 87q0 36 25.5 62t61.5 26t61.5 -26t25.5 -62t-25.5 -61.5
t-61.5 -25.5t-61.5 25.5t-25.5 61.5zM573 1346q0 36 25.5 62t61.5 26t61.5 -26t25.5 -62t-25.5 -61.5t-61.5 -25.5t-61.5 25.5t-25.5 61.5z" />
    <glyph glyph-name="i" unicode="&#xec;" horiz-adv-x="890" 
d="M145 73q-1 8 -1 16q0 27 16 49q21 30 57 36q8 1 15 2q27 0 50 -18q29 -22 35 -57l2 -16q0 -27 -17 -49q-21 -29 -57 -35q-8 -1 -16 -1q-27 0 -49 16q-29 21 -35 57zM145 1333q-1 8 -1 16q0 27 16 49q21 29 57 35q8 1 15 1q27 0 50 -16q29 -22 35 -58l2 -16q0 -27 -17 -49
q-21 -29 -57 -35q-8 -1 -15 -1q-27 1 -50 17q-29 22 -35 57zM358 87q0 36 25.5 62t61.5 26t62 -26t26 -62t-26 -61.5t-62 -25.5t-61.5 25.5t-25.5 61.5zM358 297q0 36 25.5 61.5t61.5 25.5t62 -25.5t26 -61.5t-26 -61.5t-62 -25.5t-61.5 25.5t-25.5 61.5zM358 507
q0 36 25.5 61.5t61.5 25.5t62 -25.5t26 -61.5t-26 -61.5t-62 -25.5t-61.5 25.5t-25.5 61.5zM358 717q0 36 25.5 61.5t61.5 25.5t62 -25.5t26 -61.5t-26 -61.5t-62 -25.5t-61.5 25.5t-25.5 61.5zM358 927q0 36 25.5 61.5t61.5 25.5t62 -25.5t26 -61.5t-26 -62t-62 -26
t-61.5 26t-25.5 62zM358 1136q0 36 25.5 62t61.5 26t62 -26t26 -62t-26 -61.5t-62 -25.5t-61.5 25.5t-25.5 61.5zM358 1346q0 36 25.5 62t61.5 26t62 -26t26 -62t-26 -61.5t-62 -25.5t-61.5 25.5t-25.5 61.5zM573 87q0 36 25.5 62t61.5 26t61.5 -26t25.5 -62t-25.5 -61.5
t-61.5 -25.5t-61.5 25.5t-25.5 61.5zM573 1346q0 36 25.5 62t61.5 26t61.5 -26t25.5 -62t-25.5 -61.5t-61.5 -25.5t-61.5 25.5t-25.5 61.5z" />
    <glyph glyph-name="j" unicode="j" 
d="M143 297q0 36 26 61.5t62 25.5t61.5 -25.5t25.5 -61.5t-25.5 -61.5t-61.5 -25.5t-62 25.5t-26 61.5zM143 507q0 36 26 61.5t62 25.5t61.5 -25.5t25.5 -61.5t-25.5 -61.5t-61.5 -25.5t-62 25.5t-26 61.5zM358 87q0 36 25.5 62t61.5 26t62 -26t26 -62t-26 -61.5t-62 -25.5
t-61.5 25.5t-25.5 61.5zM574 74q-1 8 -1 16q0 26 16 49q21 29 57 35q8 1 15 1q27 0 50 -17q29 -21 35 -57q1 -8 1 -16q0 -26 -16 -49q-21 -29 -57 -35q-8 -1 -15 -1q-27 0 -50 16q-29 22 -35 58zM788 87q0 36 25.5 62t61.5 26t61.5 -26t25.5 -62t-25.5 -61.5t-61.5 -25.5
t-61.5 25.5t-25.5 61.5zM1002 297q0 36 26 61.5t62 25.5t61.5 -25.5t25.5 -61.5t-25.5 -61.5t-61.5 -25.5t-62 25.5t-26 61.5zM1002 507q0 36 26 61.5t62 25.5t61.5 -25.5t25.5 -61.5t-25.5 -61.5t-61.5 -25.5t-62 25.5t-26 61.5zM1002 717q0 36 26 61.5t62 25.5t61.5 -25.5
t25.5 -61.5t-25.5 -61.5t-61.5 -25.5t-62 25.5t-26 61.5zM1002 927q0 36 26 61.5t62 25.5t61.5 -25.5t25.5 -61.5t-25.5 -62t-61.5 -26t-62 26t-26 62zM1002 1136q0 36 26 62t62 26t61.5 -26t25.5 -62t-25.5 -61.5t-61.5 -25.5t-62 25.5t-26 61.5zM1002 1346q0 36 26 62
t62 26t61.5 -26t25.5 -62t-25.5 -61.5t-61.5 -25.5t-62 25.5t-26 61.5z" />
    <glyph glyph-name="k" unicode="k" 
d="M143 87q0 36 26 62t62 26t61.5 -26t25.5 -62t-25.5 -61.5t-61.5 -25.5t-62 25.5t-26 61.5zM143 297q0 36 26 61.5t62 25.5t61.5 -25.5t25.5 -61.5t-25.5 -61.5t-61.5 -25.5t-62 25.5t-26 61.5zM143 507q0 36 26 61.5t62 25.5t61.5 -25.5t25.5 -61.5t-25.5 -61.5
t-61.5 -25.5t-62 25.5t-26 61.5zM143 717q0 36 26 61.5t62 25.5t61.5 -25.5t25.5 -61.5t-25.5 -61.5t-61.5 -25.5t-62 25.5t-26 61.5zM143 927q0 36 26 61.5t62 25.5t61.5 -25.5t25.5 -61.5t-25.5 -62t-61.5 -26t-62 26t-26 62zM143 1136q0 36 26 62t62 26t61.5 -26
t25.5 -62t-25.5 -61.5t-61.5 -25.5t-62 25.5t-26 61.5zM143 1346q0 36 26 62t62 26t61.5 -26t25.5 -62t-25.5 -61.5t-61.5 -25.5t-62 25.5t-26 61.5zM358 717q0 36 25.5 61.5t61.5 25.5t62 -25.5t26 -61.5t-26 -61.5t-62 -25.5t-61.5 25.5t-25.5 61.5zM573 507
q0 36 25.5 61.5t61.5 25.5t61.5 -25.5t25.5 -61.5t-25.5 -61.5t-61.5 -25.5t-61.5 25.5t-25.5 61.5zM573 927q0 36 25.5 61.5t61.5 25.5t61.5 -25.5t25.5 -61.5t-25.5 -62t-61.5 -26t-61.5 26t-25.5 62zM788 297q0 36 25.5 61.5t61.5 25.5t61.5 -25.5t25.5 -61.5
t-25.5 -61.5t-61.5 -25.5t-61.5 25.5t-25.5 61.5zM788 1136q0 36 25.5 62t61.5 26t61.5 -26t25.5 -62t-25.5 -61.5t-61.5 -25.5t-61.5 25.5t-25.5 61.5zM1002 87q0 36 26 62t62 26t61.5 -26t25.5 -62t-25.5 -61.5t-61.5 -25.5t-62 25.5t-26 61.5zM1002 1346q0 36 26 62
t62 26t61.5 -26t25.5 -62t-25.5 -61.5t-61.5 -25.5t-62 25.5t-26 61.5z" />
    <glyph glyph-name="l" unicode="l" 
d="M143 87q0 36 26 62t62 26t61.5 -26t25.5 -62t-25.5 -61.5t-61.5 -25.5t-62 25.5t-26 61.5zM143 297q0 36 26 61.5t62 25.5t61.5 -25.5t25.5 -61.5t-25.5 -61.5t-61.5 -25.5t-62 25.5t-26 61.5zM143 507q0 36 26 61.5t62 25.5t61.5 -25.5t25.5 -61.5t-25.5 -61.5
t-61.5 -25.5t-62 25.5t-26 61.5zM143 717q0 36 26 61.5t62 25.5t61.5 -25.5t25.5 -61.5t-25.5 -61.5t-61.5 -25.5t-62 25.5t-26 61.5zM143 927q0 36 26 61.5t62 25.5t61.5 -25.5t25.5 -61.5t-25.5 -62t-61.5 -26t-62 26t-26 62zM143 1136q0 36 26 62t62 26t61.5 -26
t25.5 -62t-25.5 -61.5t-61.5 -25.5t-62 25.5t-26 61.5zM143 1346q0 36 26 62t62 26t61.5 -26t25.5 -62t-25.5 -61.5t-61.5 -25.5t-62 25.5t-26 61.5zM358 87q0 36 25.5 62t61.5 26t62 -26t26 -62t-26 -61.5t-62 -25.5t-61.5 25.5t-25.5 61.5zM573 87q0 36 25.5 62t61.5 26
t61.5 -26t25.5 -62t-25.5 -61.5t-61.5 -25.5t-61.5 25.5t-25.5 61.5zM788 87q0 36 25.5 62t61.5 26t61.5 -26t25.5 -62t-25.5 -61.5t-61.5 -25.5t-61.5 25.5t-25.5 61.5zM1002 87q0 36 26 62t62 26t61.5 -26t25.5 -62t-25.5 -61.5t-61.5 -25.5t-62 25.5t-26 61.5z" />
    <glyph glyph-name="m" unicode="m" 
d="M143 87q0 36 26 62t62 26t61.5 -26t25.5 -62t-25.5 -61.5t-61.5 -25.5t-62 25.5t-26 61.5zM143 297q0 36 26 61.5t62 25.5t61.5 -25.5t25.5 -61.5t-25.5 -61.5t-61.5 -25.5t-62 25.5t-26 61.5zM143 507q0 36 26 61.5t62 25.5t61.5 -25.5t25.5 -61.5t-25.5 -61.5
t-61.5 -25.5t-62 25.5t-26 61.5zM143 717q0 36 26 61.5t62 25.5t61.5 -25.5t25.5 -61.5t-25.5 -61.5t-61.5 -25.5t-62 25.5t-26 61.5zM143 927q0 36 26 61.5t62 25.5t61.5 -25.5t25.5 -61.5t-25.5 -62t-61.5 -26t-62 26t-26 62zM143 1136q0 36 26 62t62 26t61.5 -26
t25.5 -62t-25.5 -61.5t-61.5 -25.5t-62 25.5t-26 61.5zM143 1346q0 36 26 62t62 26t61.5 -26t25.5 -62t-25.5 -61.5t-61.5 -25.5t-62 25.5t-26 61.5zM358 1136q0 36 25.5 62t61.5 26t62 -26t26 -62t-26 -61.5t-62 -25.5t-61.5 25.5t-25.5 61.5zM573 717q0 36 25.5 61.5
t61.5 25.5t61.5 -25.5t25.5 -61.5t-25.5 -61.5t-61.5 -25.5t-61.5 25.5t-25.5 61.5zM573 927q0 36 25.5 61.5t61.5 25.5t61.5 -25.5t25.5 -61.5t-25.5 -62t-61.5 -26t-61.5 26t-25.5 62zM788 1136q0 36 25.5 62t61.5 26t61.5 -26t25.5 -62t-25.5 -61.5t-61.5 -25.5
t-61.5 25.5t-25.5 61.5zM1002 87q0 36 26 62t62 26t61.5 -26t25.5 -62t-25.5 -61.5t-61.5 -25.5t-62 25.5t-26 61.5zM1002 297q0 36 26 61.5t62 25.5t61.5 -25.5t25.5 -61.5t-25.5 -61.5t-61.5 -25.5t-62 25.5t-26 61.5zM1002 507q0 36 26 61.5t62 25.5t61.5 -25.5
t25.5 -61.5t-25.5 -61.5t-61.5 -25.5t-62 25.5t-26 61.5zM1002 717q0 36 26 61.5t62 25.5t61.5 -25.5t25.5 -61.5t-25.5 -61.5t-61.5 -25.5t-62 25.5t-26 61.5zM1002 927q0 36 26 61.5t62 25.5t61.5 -25.5t25.5 -61.5t-25.5 -62t-61.5 -26t-62 26t-26 62zM1002 1136
q0 36 26 62t62 26t61.5 -26t25.5 -62t-25.5 -61.5t-61.5 -25.5t-62 25.5t-26 61.5zM1002 1346q0 36 26 62t62 26t61.5 -26t25.5 -62t-25.5 -61.5t-61.5 -25.5t-62 25.5t-26 61.5z" />
    <glyph glyph-name="n" unicode="n" 
d="M143 87q0 36 26 62t62 26t61.5 -26t25.5 -62t-25.5 -61.5t-61.5 -25.5t-62 25.5t-26 61.5zM143 297q0 36 26 61.5t62 25.5t61.5 -25.5t25.5 -61.5t-25.5 -61.5t-61.5 -25.5t-62 25.5t-26 61.5zM143 507q0 36 26 61.5t62 25.5t61.5 -25.5t25.5 -61.5t-25.5 -61.5
t-61.5 -25.5t-62 25.5t-26 61.5zM143 717q0 36 26 61.5t62 25.5t61.5 -25.5t25.5 -61.5t-25.5 -61.5t-61.5 -25.5t-62 25.5t-26 61.5zM143 927q0 36 26 61.5t62 25.5t61.5 -25.5t25.5 -61.5t-25.5 -62t-61.5 -26t-62 26t-26 62zM143 1136q0 36 26 62t62 26t61.5 -26
t25.5 -62t-25.5 -61.5t-61.5 -25.5t-62 25.5t-26 61.5zM143 1346q0 36 26 62t62 26t61.5 -26t25.5 -62t-25.5 -61.5t-61.5 -25.5t-62 25.5t-26 61.5zM358 1136q0 36 25.5 62t61.5 26t62 -26t26 -62t-26 -61.5t-62 -25.5t-61.5 25.5t-25.5 61.5zM573 927q0 36 25.5 61.5
t61.5 25.5t61.5 -25.5t25.5 -61.5t-25.5 -62t-61.5 -26t-61.5 26t-25.5 62zM788 717q0 36 25.5 61.5t61.5 25.5t61.5 -25.5t25.5 -61.5t-25.5 -61.5t-61.5 -25.5t-61.5 25.5t-25.5 61.5zM1002 87q0 36 26 62t62 26t61.5 -26t25.5 -62t-25.5 -61.5t-61.5 -25.5t-62 25.5
t-26 61.5zM1002 297q0 36 26 61.5t62 25.5t61.5 -25.5t25.5 -61.5t-25.5 -61.5t-61.5 -25.5t-62 25.5t-26 61.5zM1002 507q0 36 26 61.5t62 25.5t61.5 -25.5t25.5 -61.5t-25.5 -61.5t-61.5 -25.5t-62 25.5t-26 61.5zM1002 717q0 36 26 61.5t62 25.5t61.5 -25.5t25.5 -61.5
t-25.5 -61.5t-61.5 -25.5t-62 25.5t-26 61.5zM1002 927q0 36 26 61.5t62 25.5t61.5 -25.5t25.5 -61.5t-25.5 -62t-61.5 -26t-62 26t-26 62zM1002 1136q0 36 26 62t62 26t61.5 -26t25.5 -62t-25.5 -61.5t-61.5 -25.5t-62 25.5t-26 61.5zM1002 1346q0 36 26 62t62 26t61.5 -26
t25.5 -62t-25.5 -61.5t-61.5 -25.5t-62 25.5t-26 61.5z" />
    <glyph glyph-name="o" unicode="o" 
d="M143 297q0 36 26 61.5t62 25.5t61.5 -25.5t25.5 -61.5t-25.5 -61.5t-61.5 -25.5t-62 25.5t-26 61.5zM143 507q0 36 26 61.5t62 25.5t61.5 -25.5t25.5 -61.5t-25.5 -61.5t-61.5 -25.5t-62 25.5t-26 61.5zM143 717q0 36 26 61.5t62 25.5t61.5 -25.5t25.5 -61.5t-25.5 -61.5
t-61.5 -25.5t-62 25.5t-26 61.5zM143 927q0 36 26 61.5t62 25.5t61.5 -25.5t25.5 -61.5t-25.5 -62t-61.5 -26t-62 26t-26 62zM143 1136q0 36 26 62t62 26t61.5 -26t25.5 -62t-25.5 -61.5t-61.5 -25.5t-62 25.5t-26 61.5zM358 87q0 36 25.5 62t61.5 26t62 -26t26 -62
t-26 -61.5t-62 -25.5t-61.5 25.5t-25.5 61.5zM358 1346q0 36 25.5 62t61.5 26t62 -26t26 -62t-26 -61.5t-62 -25.5t-61.5 25.5t-25.5 61.5zM573 87q0 36 25.5 62t61.5 26t61.5 -26t25.5 -62t-25.5 -61.5t-61.5 -25.5t-61.5 25.5t-25.5 61.5zM573 1346q0 36 25.5 62t61.5 26
t61.5 -26t25.5 -62t-25.5 -61.5t-61.5 -25.5t-61.5 25.5t-25.5 61.5zM788 87q0 36 25.5 62t61.5 26t61.5 -26t25.5 -62t-25.5 -61.5t-61.5 -25.5t-61.5 25.5t-25.5 61.5zM788 1346q0 36 25.5 62t61.5 26t61.5 -26t25.5 -62t-25.5 -61.5t-61.5 -25.5t-61.5 25.5t-25.5 61.5z
M1002 297q0 36 26 61.5t62 25.5t61.5 -25.5t25.5 -61.5t-25.5 -61.5t-61.5 -25.5t-62 25.5t-26 61.5zM1002 507q0 36 26 61.5t62 25.5t61.5 -25.5t25.5 -61.5t-25.5 -61.5t-61.5 -25.5t-62 25.5t-26 61.5zM1002 717q0 36 26 61.5t62 25.5t61.5 -25.5t25.5 -61.5t-25.5 -61.5
t-61.5 -25.5t-62 25.5t-26 61.5zM1002 927q0 36 26 61.5t62 25.5t61.5 -25.5t25.5 -61.5t-25.5 -62t-61.5 -26t-62 26t-26 62zM1002 1136q0 36 26 62t62 26t61.5 -26t25.5 -62t-25.5 -61.5t-61.5 -25.5t-62 25.5t-26 61.5z" />
    <glyph glyph-name="o" unicode="&#xf6;" 
d="M143 297q0 36 26 61.5t62 25.5t61.5 -25.5t25.5 -61.5t-25.5 -61.5t-61.5 -25.5t-62 25.5t-26 61.5zM143 507q0 36 26 61.5t62 25.5t61.5 -25.5t25.5 -61.5t-25.5 -61.5t-61.5 -25.5t-62 25.5t-26 61.5zM143 717q0 36 26 61.5t62 25.5t61.5 -25.5t25.5 -61.5t-25.5 -61.5
t-61.5 -25.5t-62 25.5t-26 61.5zM143 927q0 36 26 61.5t62 25.5t61.5 -25.5t25.5 -61.5t-25.5 -62t-61.5 -26t-62 26t-26 62zM143 1136q0 36 26 62t62 26t61.5 -26t25.5 -62t-25.5 -61.5t-61.5 -25.5t-62 25.5t-26 61.5zM358 87q0 36 25.5 62t61.5 26t62 -26t26 -62
t-26 -61.5t-62 -25.5t-61.5 25.5t-25.5 61.5zM358 1346q0 36 25.5 62t61.5 26t62 -26t26 -62t-26 -61.5t-62 -25.5t-61.5 25.5t-25.5 61.5zM573 87q0 36 25.5 62t61.5 26t61.5 -26t25.5 -62t-25.5 -61.5t-61.5 -25.5t-61.5 25.5t-25.5 61.5zM573 1346q0 36 25.5 62t61.5 26
t61.5 -26t25.5 -62t-25.5 -61.5t-61.5 -25.5t-61.5 25.5t-25.5 61.5zM788 87q0 36 25.5 62t61.5 26t61.5 -26t25.5 -62t-25.5 -61.5t-61.5 -25.5t-61.5 25.5t-25.5 61.5zM788 1346q0 36 25.5 62t61.5 26t61.5 -26t25.5 -62t-25.5 -61.5t-61.5 -25.5t-61.5 25.5t-25.5 61.5z
M1002 297q0 36 26 61.5t62 25.5t61.5 -25.5t25.5 -61.5t-25.5 -61.5t-61.5 -25.5t-62 25.5t-26 61.5zM1002 507q0 36 26 61.5t62 25.5t61.5 -25.5t25.5 -61.5t-25.5 -61.5t-61.5 -25.5t-62 25.5t-26 61.5zM1002 717q0 36 26 61.5t62 25.5t61.5 -25.5t25.5 -61.5t-25.5 -61.5
t-61.5 -25.5t-62 25.5t-26 61.5zM1002 927q0 36 26 61.5t62 25.5t61.5 -25.5t25.5 -61.5t-25.5 -62t-61.5 -26t-62 26t-26 62zM1002 1136q0 36 26 62t62 26t61.5 -26t25.5 -62t-25.5 -61.5t-61.5 -25.5t-62 25.5t-26 61.5z" />
    <glyph glyph-name="o" unicode="&#xf5;" 
d="M143 297q0 36 26 61.5t62 25.5t61.5 -25.5t25.5 -61.5t-25.5 -61.5t-61.5 -25.5t-62 25.5t-26 61.5zM143 507q0 36 26 61.5t62 25.5t61.5 -25.5t25.5 -61.5t-25.5 -61.5t-61.5 -25.5t-62 25.5t-26 61.5zM143 717q0 36 26 61.5t62 25.5t61.5 -25.5t25.5 -61.5t-25.5 -61.5
t-61.5 -25.5t-62 25.5t-26 61.5zM143 927q0 36 26 61.5t62 25.5t61.5 -25.5t25.5 -61.5t-25.5 -62t-61.5 -26t-62 26t-26 62zM143 1136q0 36 26 62t62 26t61.5 -26t25.5 -62t-25.5 -61.5t-61.5 -25.5t-62 25.5t-26 61.5zM358 87q0 36 25.5 62t61.5 26t62 -26t26 -62
t-26 -61.5t-62 -25.5t-61.5 25.5t-25.5 61.5zM358 1346q0 36 25.5 62t61.5 26t62 -26t26 -62t-26 -61.5t-62 -25.5t-61.5 25.5t-25.5 61.5zM573 87q0 36 25.5 62t61.5 26t61.5 -26t25.5 -62t-25.5 -61.5t-61.5 -25.5t-61.5 25.5t-25.5 61.5zM573 1346q0 36 25.5 62t61.5 26
t61.5 -26t25.5 -62t-25.5 -61.5t-61.5 -25.5t-61.5 25.5t-25.5 61.5zM788 87q0 36 25.5 62t61.5 26t61.5 -26t25.5 -62t-25.5 -61.5t-61.5 -25.5t-61.5 25.5t-25.5 61.5zM788 1346q0 36 25.5 62t61.5 26t61.5 -26t25.5 -62t-25.5 -61.5t-61.5 -25.5t-61.5 25.5t-25.5 61.5z
M1002 297q0 36 26 61.5t62 25.5t61.5 -25.5t25.5 -61.5t-25.5 -61.5t-61.5 -25.5t-62 25.5t-26 61.5zM1002 507q0 36 26 61.5t62 25.5t61.5 -25.5t25.5 -61.5t-25.5 -61.5t-61.5 -25.5t-62 25.5t-26 61.5zM1002 717q0 36 26 61.5t62 25.5t61.5 -25.5t25.5 -61.5t-25.5 -61.5
t-61.5 -25.5t-62 25.5t-26 61.5zM1002 927q0 36 26 61.5t62 25.5t61.5 -25.5t25.5 -61.5t-25.5 -62t-61.5 -26t-62 26t-26 62zM1002 1136q0 36 26 62t62 26t61.5 -26t25.5 -62t-25.5 -61.5t-61.5 -25.5t-62 25.5t-26 61.5z" />
    <glyph glyph-name="o" unicode="&#xf4;" 
d="M143 297q0 36 26 61.5t62 25.5t61.5 -25.5t25.5 -61.5t-25.5 -61.5t-61.5 -25.5t-62 25.5t-26 61.5zM143 507q0 36 26 61.5t62 25.5t61.5 -25.5t25.5 -61.5t-25.5 -61.5t-61.5 -25.5t-62 25.5t-26 61.5zM143 717q0 36 26 61.5t62 25.5t61.5 -25.5t25.5 -61.5t-25.5 -61.5
t-61.5 -25.5t-62 25.5t-26 61.5zM143 927q0 36 26 61.5t62 25.5t61.5 -25.5t25.5 -61.5t-25.5 -62t-61.5 -26t-62 26t-26 62zM143 1136q0 36 26 62t62 26t61.5 -26t25.5 -62t-25.5 -61.5t-61.5 -25.5t-62 25.5t-26 61.5zM358 87q0 36 25.5 62t61.5 26t62 -26t26 -62
t-26 -61.5t-62 -25.5t-61.5 25.5t-25.5 61.5zM358 1346q0 36 25.5 62t61.5 26t62 -26t26 -62t-26 -61.5t-62 -25.5t-61.5 25.5t-25.5 61.5zM573 87q0 36 25.5 62t61.5 26t61.5 -26t25.5 -62t-25.5 -61.5t-61.5 -25.5t-61.5 25.5t-25.5 61.5zM573 1346q0 36 25.5 62t61.5 26
t61.5 -26t25.5 -62t-25.5 -61.5t-61.5 -25.5t-61.5 25.5t-25.5 61.5zM788 87q0 36 25.5 62t61.5 26t61.5 -26t25.5 -62t-25.5 -61.5t-61.5 -25.5t-61.5 25.5t-25.5 61.5zM788 1346q0 36 25.5 62t61.5 26t61.5 -26t25.5 -62t-25.5 -61.5t-61.5 -25.5t-61.5 25.5t-25.5 61.5z
M1002 297q0 36 26 61.5t62 25.5t61.5 -25.5t25.5 -61.5t-25.5 -61.5t-61.5 -25.5t-62 25.5t-26 61.5zM1002 507q0 36 26 61.5t62 25.5t61.5 -25.5t25.5 -61.5t-25.5 -61.5t-61.5 -25.5t-62 25.5t-26 61.5zM1002 717q0 36 26 61.5t62 25.5t61.5 -25.5t25.5 -61.5t-25.5 -61.5
t-61.5 -25.5t-62 25.5t-26 61.5zM1002 927q0 36 26 61.5t62 25.5t61.5 -25.5t25.5 -61.5t-25.5 -62t-61.5 -26t-62 26t-26 62zM1002 1136q0 36 26 62t62 26t61.5 -26t25.5 -62t-25.5 -61.5t-61.5 -25.5t-62 25.5t-26 61.5z" />
    <glyph glyph-name="o" unicode="&#xf3;" 
d="M143 297q0 36 26 61.5t62 25.5t61.5 -25.5t25.5 -61.5t-25.5 -61.5t-61.5 -25.5t-62 25.5t-26 61.5zM143 507q0 36 26 61.5t62 25.5t61.5 -25.5t25.5 -61.5t-25.5 -61.5t-61.5 -25.5t-62 25.5t-26 61.5zM143 717q0 36 26 61.5t62 25.5t61.5 -25.5t25.5 -61.5t-25.5 -61.5
t-61.5 -25.5t-62 25.5t-26 61.5zM143 927q0 36 26 61.5t62 25.5t61.5 -25.5t25.5 -61.5t-25.5 -62t-61.5 -26t-62 26t-26 62zM143 1136q0 36 26 62t62 26t61.5 -26t25.5 -62t-25.5 -61.5t-61.5 -25.5t-62 25.5t-26 61.5zM358 87q0 36 25.5 62t61.5 26t62 -26t26 -62
t-26 -61.5t-62 -25.5t-61.5 25.5t-25.5 61.5zM358 1346q0 36 25.5 62t61.5 26t62 -26t26 -62t-26 -61.5t-62 -25.5t-61.5 25.5t-25.5 61.5zM573 87q0 36 25.5 62t61.5 26t61.5 -26t25.5 -62t-25.5 -61.5t-61.5 -25.5t-61.5 25.5t-25.5 61.5zM573 1346q0 36 25.5 62t61.5 26
t61.5 -26t25.5 -62t-25.5 -61.5t-61.5 -25.5t-61.5 25.5t-25.5 61.5zM788 87q0 36 25.5 62t61.5 26t61.5 -26t25.5 -62t-25.5 -61.5t-61.5 -25.5t-61.5 25.5t-25.5 61.5zM788 1346q0 36 25.5 62t61.5 26t61.5 -26t25.5 -62t-25.5 -61.5t-61.5 -25.5t-61.5 25.5t-25.5 61.5z
M1002 297q0 36 26 61.5t62 25.5t61.5 -25.5t25.5 -61.5t-25.5 -61.5t-61.5 -25.5t-62 25.5t-26 61.5zM1002 507q0 36 26 61.5t62 25.5t61.5 -25.5t25.5 -61.5t-25.5 -61.5t-61.5 -25.5t-62 25.5t-26 61.5zM1002 717q0 36 26 61.5t62 25.5t61.5 -25.5t25.5 -61.5t-25.5 -61.5
t-61.5 -25.5t-62 25.5t-26 61.5zM1002 927q0 36 26 61.5t62 25.5t61.5 -25.5t25.5 -61.5t-25.5 -62t-61.5 -26t-62 26t-26 62zM1002 1136q0 36 26 62t62 26t61.5 -26t25.5 -62t-25.5 -61.5t-61.5 -25.5t-62 25.5t-26 61.5z" />
    <glyph glyph-name="o" unicode="&#xf2;" 
d="M143 297q0 36 26 61.5t62 25.5t61.5 -25.5t25.5 -61.5t-25.5 -61.5t-61.5 -25.5t-62 25.5t-26 61.5zM143 507q0 36 26 61.5t62 25.5t61.5 -25.5t25.5 -61.5t-25.5 -61.5t-61.5 -25.5t-62 25.5t-26 61.5zM143 717q0 36 26 61.5t62 25.5t61.5 -25.5t25.5 -61.5t-25.5 -61.5
t-61.5 -25.5t-62 25.5t-26 61.5zM143 927q0 36 26 61.5t62 25.5t61.5 -25.5t25.5 -61.5t-25.5 -62t-61.5 -26t-62 26t-26 62zM143 1136q0 36 26 62t62 26t61.5 -26t25.5 -62t-25.5 -61.5t-61.5 -25.5t-62 25.5t-26 61.5zM358 87q0 36 25.5 62t61.5 26t62 -26t26 -62
t-26 -61.5t-62 -25.5t-61.5 25.5t-25.5 61.5zM358 1346q0 36 25.5 62t61.5 26t62 -26t26 -62t-26 -61.5t-62 -25.5t-61.5 25.5t-25.5 61.5zM573 87q0 36 25.5 62t61.5 26t61.5 -26t25.5 -62t-25.5 -61.5t-61.5 -25.5t-61.5 25.5t-25.5 61.5zM573 1346q0 36 25.5 62t61.5 26
t61.5 -26t25.5 -62t-25.5 -61.5t-61.5 -25.5t-61.5 25.5t-25.5 61.5zM788 87q0 36 25.5 62t61.5 26t61.5 -26t25.5 -62t-25.5 -61.5t-61.5 -25.5t-61.5 25.5t-25.5 61.5zM788 1346q0 36 25.5 62t61.5 26t61.5 -26t25.5 -62t-25.5 -61.5t-61.5 -25.5t-61.5 25.5t-25.5 61.5z
M1002 297q0 36 26 61.5t62 25.5t61.5 -25.5t25.5 -61.5t-25.5 -61.5t-61.5 -25.5t-62 25.5t-26 61.5zM1002 507q0 36 26 61.5t62 25.5t61.5 -25.5t25.5 -61.5t-25.5 -61.5t-61.5 -25.5t-62 25.5t-26 61.5zM1002 717q0 36 26 61.5t62 25.5t61.5 -25.5t25.5 -61.5t-25.5 -61.5
t-61.5 -25.5t-62 25.5t-26 61.5zM1002 927q0 36 26 61.5t62 25.5t61.5 -25.5t25.5 -61.5t-25.5 -62t-61.5 -26t-62 26t-26 62zM1002 1136q0 36 26 62t62 26t61.5 -26t25.5 -62t-25.5 -61.5t-61.5 -25.5t-62 25.5t-26 61.5z" />
    <glyph glyph-name="p" unicode="p" 
d="M143 87q0 36 26 62t62 26t61.5 -26t25.5 -62t-25.5 -61.5t-61.5 -25.5t-62 25.5t-26 61.5zM143 297q0 36 26 61.5t62 25.5t61.5 -25.5t25.5 -61.5t-25.5 -61.5t-61.5 -25.5t-62 25.5t-26 61.5zM143 507q0 36 26 61.5t62 25.5t61.5 -25.5t25.5 -61.5t-25.5 -61.5
t-61.5 -25.5t-62 25.5t-26 61.5zM143 717q0 36 26 61.5t62 25.5t61.5 -25.5t25.5 -61.5t-25.5 -61.5t-61.5 -25.5t-62 25.5t-26 61.5zM143 927q0 36 26 61.5t62 25.5t61.5 -25.5t25.5 -61.5t-25.5 -62t-61.5 -26t-62 26t-26 62zM143 1136q0 36 26 62t62 26t61.5 -26
t25.5 -62t-25.5 -61.5t-61.5 -25.5t-62 25.5t-26 61.5zM143 1346q0 36 26 62t62 26t61.5 -26t25.5 -62t-25.5 -61.5t-61.5 -25.5t-62 25.5t-26 61.5zM358 717q0 36 25.5 61.5t61.5 25.5t62 -25.5t26 -61.5t-26 -61.5t-62 -25.5t-61.5 25.5t-25.5 61.5zM358 1346
q0 36 25.5 62t61.5 26t62 -26t26 -62t-26 -61.5t-62 -25.5t-61.5 25.5t-25.5 61.5zM573 717q0 36 25.5 61.5t61.5 25.5t61.5 -25.5t25.5 -61.5t-25.5 -61.5t-61.5 -25.5t-61.5 25.5t-25.5 61.5zM573 1346q0 36 25.5 62t61.5 26t61.5 -26t25.5 -62t-25.5 -61.5t-61.5 -25.5
t-61.5 25.5t-25.5 61.5zM788 717q0 36 25.5 61.5t61.5 25.5t61.5 -25.5t25.5 -61.5t-25.5 -61.5t-61.5 -25.5t-61.5 25.5t-25.5 61.5zM788 1346q0 36 25.5 62t61.5 26t61.5 -26t25.5 -62t-25.5 -61.5t-61.5 -25.5t-61.5 25.5t-25.5 61.5zM1002 927q0 36 26 61.5t62 25.5
t61.5 -25.5t25.5 -61.5t-25.5 -62t-61.5 -26t-62 26t-26 62zM1002 1136q0 36 26 62t62 26t61.5 -26t25.5 -62t-25.5 -61.5t-61.5 -25.5t-62 25.5t-26 61.5z" />
    <glyph glyph-name="q" unicode="q" 
d="M143 297q0 36 26 61.5t62 25.5t61.5 -25.5t25.5 -61.5t-25.5 -61.5t-61.5 -25.5t-62 25.5t-26 61.5zM143 507q0 36 26 61.5t62 25.5t61.5 -25.5t25.5 -61.5t-25.5 -61.5t-61.5 -25.5t-62 25.5t-26 61.5zM143 717q0 36 26 61.5t62 25.5t61.5 -25.5t25.5 -61.5t-25.5 -61.5
t-61.5 -25.5t-62 25.5t-26 61.5zM143 927q0 36 26 61.5t62 25.5t61.5 -25.5t25.5 -61.5t-25.5 -62t-61.5 -26t-62 26t-26 62zM143 1136q0 36 26 62t62 26t61.5 -26t25.5 -62t-25.5 -61.5t-61.5 -25.5t-62 25.5t-26 61.5zM358 87q0 36 25.5 62t61.5 26t62 -26t26 -62
t-26 -61.5t-62 -25.5t-61.5 25.5t-25.5 61.5zM358 1346q0 36 25.5 62t61.5 26t62 -26t26 -62t-26 -61.5t-62 -25.5t-61.5 25.5t-25.5 61.5zM573 87q0 36 25.5 62t61.5 26t61.5 -26t25.5 -62t-25.5 -61.5t-61.5 -25.5t-61.5 25.5t-25.5 61.5zM573 507q0 36 25.5 61.5
t61.5 25.5t61.5 -25.5t25.5 -61.5t-25.5 -61.5t-61.5 -25.5t-61.5 25.5t-25.5 61.5zM573 1346q0 36 25.5 62t61.5 26t61.5 -26t25.5 -62t-25.5 -61.5t-61.5 -25.5t-61.5 25.5t-25.5 61.5zM788 297q0 36 25.5 61.5t61.5 25.5t61.5 -25.5t25.5 -61.5t-25.5 -61.5t-61.5 -25.5
t-61.5 25.5t-25.5 61.5zM788 1346q0 36 25.5 62t61.5 26t61.5 -26t25.5 -62t-25.5 -61.5t-61.5 -25.5t-61.5 25.5t-25.5 61.5zM1002 87q0 36 26 62t62 26t61.5 -26t25.5 -62t-25.5 -61.5t-61.5 -25.5t-62 25.5t-26 61.5zM1002 507q0 36 26 61.5t62 25.5t61.5 -25.5
t25.5 -61.5t-25.5 -61.5t-61.5 -25.5t-62 25.5t-26 61.5zM1002 717q0 36 26 61.5t62 25.5t61.5 -25.5t25.5 -61.5t-25.5 -61.5t-61.5 -25.5t-62 25.5t-26 61.5zM1002 927q0 36 26 61.5t62 25.5t61.5 -25.5t25.5 -61.5t-25.5 -62t-61.5 -26t-62 26t-26 62zM1002 1136
q0 36 26 62t62 26t61.5 -26t25.5 -62t-25.5 -61.5t-61.5 -25.5t-62 25.5t-26 61.5z" />
    <glyph glyph-name="r" unicode="r" 
d="M143 87q0 36 26 62t62 26t61.5 -26t25.5 -62t-25.5 -61.5t-61.5 -25.5t-62 25.5t-26 61.5zM143 297q0 36 26 61.5t62 25.5t61.5 -25.5t25.5 -61.5t-25.5 -61.5t-61.5 -25.5t-62 25.5t-26 61.5zM143 507q0 36 26 61.5t62 25.5t61.5 -25.5t25.5 -61.5t-25.5 -61.5
t-61.5 -25.5t-62 25.5t-26 61.5zM143 717q0 36 26 61.5t62 25.5t61.5 -25.5t25.5 -61.5t-25.5 -61.5t-61.5 -25.5t-62 25.5t-26 61.5zM143 927q0 36 26 61.5t62 25.5t61.5 -25.5t25.5 -61.5t-25.5 -62t-61.5 -26t-62 26t-26 62zM143 1136q0 36 26 62t62 26t61.5 -26
t25.5 -62t-25.5 -61.5t-61.5 -25.5t-62 25.5t-26 61.5zM143 1346q0 36 26 62t62 26t61.5 -26t25.5 -62t-25.5 -61.5t-61.5 -25.5t-62 25.5t-26 61.5zM358 717q0 36 25.5 61.5t61.5 25.5t62 -25.5t26 -61.5t-26 -61.5t-62 -25.5t-61.5 25.5t-25.5 61.5zM358 1346
q0 36 25.5 62t61.5 26t62 -26t26 -62t-26 -61.5t-62 -25.5t-61.5 25.5t-25.5 61.5zM573 507q0 36 25.5 61.5t61.5 25.5t61.5 -25.5t25.5 -61.5t-25.5 -61.5t-61.5 -25.5t-61.5 25.5t-25.5 61.5zM573 717q0 36 25.5 61.5t61.5 25.5t61.5 -25.5t25.5 -61.5t-25.5 -61.5
t-61.5 -25.5t-61.5 25.5t-25.5 61.5zM573 1346q0 36 25.5 62t61.5 26t61.5 -26t25.5 -62t-25.5 -61.5t-61.5 -25.5t-61.5 25.5t-25.5 61.5zM788 297q0 36 25.5 61.5t61.5 25.5t61.5 -25.5t25.5 -61.5t-25.5 -61.5t-61.5 -25.5t-61.5 25.5t-25.5 61.5zM788 717
q0 36 25.5 61.5t61.5 25.5t61.5 -25.5t25.5 -61.5t-25.5 -61.5t-61.5 -25.5t-61.5 25.5t-25.5 61.5zM788 1346q0 36 25.5 62t61.5 26t61.5 -26t25.5 -62t-25.5 -61.5t-61.5 -25.5t-61.5 25.5t-25.5 61.5zM1002 87q0 36 26 62t62 26t61.5 -26t25.5 -62t-25.5 -61.5
t-61.5 -25.5t-62 25.5t-26 61.5zM1002 927q0 36 26 61.5t62 25.5t61.5 -25.5t25.5 -61.5t-25.5 -62t-61.5 -26t-62 26t-26 62zM1002 1136q0 36 26 62t62 26t61.5 -26t25.5 -62t-25.5 -61.5t-61.5 -25.5t-62 25.5t-26 61.5z" />
    <glyph glyph-name="s" unicode="s" 
d="M143 297q0 36 26 61.5t62 25.5t61.5 -25.5t25.5 -61.5t-25.5 -61.5t-61.5 -25.5t-62 25.5t-26 61.5zM143 927q0 36 26 61.5t62 25.5t61.5 -25.5t25.5 -61.5t-25.5 -62t-61.5 -26t-62 26t-26 62zM143 1136q0 36 26 62t62 26t61.5 -26t25.5 -62t-25.5 -61.5t-61.5 -25.5
t-62 25.5t-26 61.5zM358 87q0 36 25.5 62t61.5 26t62 -26t26 -62t-26 -61.5t-62 -25.5t-61.5 25.5t-25.5 61.5zM358 717q0 36 25.5 61.5t61.5 25.5t62 -25.5t26 -61.5t-26 -61.5t-62 -25.5t-61.5 25.5t-25.5 61.5zM358 1346q0 36 25.5 62t61.5 26t62 -26t26 -62t-26 -61.5
t-62 -25.5t-61.5 25.5t-25.5 61.5zM573 87q0 36 25.5 62t61.5 26t61.5 -26t25.5 -62t-25.5 -61.5t-61.5 -25.5t-61.5 25.5t-25.5 61.5zM573 717q0 36 25.5 61.5t61.5 25.5t61.5 -25.5t25.5 -61.5t-25.5 -61.5t-61.5 -25.5t-61.5 25.5t-25.5 61.5zM573 1346q0 36 25.5 62
t61.5 26t61.5 -26t25.5 -62t-25.5 -61.5t-61.5 -25.5t-61.5 25.5t-25.5 61.5zM788 87q0 36 25.5 62t61.5 26t61.5 -26t25.5 -62t-25.5 -61.5t-61.5 -25.5t-61.5 25.5t-25.5 61.5zM788 717q0 36 25.5 61.5t61.5 25.5t61.5 -25.5t25.5 -61.5t-25.5 -61.5t-61.5 -25.5
t-61.5 25.5t-25.5 61.5zM788 1346q0 36 25.5 62t61.5 26t61.5 -26t25.5 -62t-25.5 -61.5t-61.5 -25.5t-61.5 25.5t-25.5 61.5zM1002 297q0 36 26 61.5t62 25.5t61.5 -25.5t25.5 -61.5t-25.5 -61.5t-61.5 -25.5t-62 25.5t-26 61.5zM1002 507q0 36 26 61.5t62 25.5t61.5 -25.5
t25.5 -61.5t-25.5 -61.5t-61.5 -25.5t-62 25.5t-26 61.5zM1002 1136q0 36 26 62t62 26t61.5 -26t25.5 -62t-25.5 -61.5t-61.5 -25.5t-62 25.5t-26 61.5z" />
    <glyph glyph-name="t" unicode="t" 
d="M143 1346q0 36 26 62t62 26t61.5 -26t25.5 -62t-25.5 -61.5t-61.5 -25.5t-62 25.5t-26 61.5zM358 1346q0 36 25.5 62t61.5 26t62 -26t26 -62t-26 -61.5t-62 -25.5t-61.5 25.5t-25.5 61.5zM573 87q0 36 25.5 62t61.5 26t61.5 -26t25.5 -62t-25.5 -61.5t-61.5 -25.5
t-61.5 25.5t-25.5 61.5zM573 297q0 36 25.5 61.5t61.5 25.5t61.5 -25.5t25.5 -61.5t-25.5 -61.5t-61.5 -25.5t-61.5 25.5t-25.5 61.5zM573 507q0 36 25.5 61.5t61.5 25.5t61.5 -25.5t25.5 -61.5t-25.5 -61.5t-61.5 -25.5t-61.5 25.5t-25.5 61.5zM573 717q0 36 25.5 61.5
t61.5 25.5t61.5 -25.5t25.5 -61.5t-25.5 -61.5t-61.5 -25.5t-61.5 25.5t-25.5 61.5zM573 927q0 36 25.5 61.5t61.5 25.5t61.5 -25.5t25.5 -61.5t-25.5 -62t-61.5 -26t-61.5 26t-25.5 62zM573 1136q0 36 25.5 62t61.5 26t61.5 -26t25.5 -62t-25.5 -61.5t-61.5 -25.5
t-61.5 25.5t-25.5 61.5zM573 1346q0 36 25.5 62t61.5 26t61.5 -26t25.5 -62t-25.5 -61.5t-61.5 -25.5t-61.5 25.5t-25.5 61.5zM788 1346q0 36 25.5 62t61.5 26t61.5 -26t25.5 -62t-25.5 -61.5t-61.5 -25.5t-61.5 25.5t-25.5 61.5zM1002 1346q0 36 26 62t62 26t61.5 -26
t25.5 -62t-25.5 -61.5t-61.5 -25.5t-62 25.5t-26 61.5z" />
    <glyph glyph-name="u" unicode="u" 
d="M143 297q0 36 26 61.5t62 25.5t61.5 -25.5t25.5 -61.5t-25.5 -61.5t-61.5 -25.5t-62 25.5t-26 61.5zM143 507q0 36 26 61.5t62 25.5t61.5 -25.5t25.5 -61.5t-25.5 -61.5t-61.5 -25.5t-62 25.5t-26 61.5zM143 717q0 36 26 61.5t62 25.5t61.5 -25.5t25.5 -61.5t-25.5 -61.5
t-61.5 -25.5t-62 25.5t-26 61.5zM143 927q0 36 26 61.5t62 25.5t61.5 -25.5t25.5 -61.5t-25.5 -62t-61.5 -26t-62 26t-26 62zM143 1136q0 36 26 62t62 26t61.5 -26t25.5 -62t-25.5 -61.5t-61.5 -25.5t-62 25.5t-26 61.5zM143 1346q0 36 26 62t62 26t61.5 -26t25.5 -62
t-25.5 -61.5t-61.5 -25.5t-62 25.5t-26 61.5zM358 87q0 36 25.5 62t61.5 26t62 -26t26 -62t-26 -61.5t-62 -25.5t-61.5 25.5t-25.5 61.5zM573 87q0 36 25.5 62t61.5 26t61.5 -26t25.5 -62t-25.5 -61.5t-61.5 -25.5t-61.5 25.5t-25.5 61.5zM788 87q0 36 25.5 62t61.5 26
t61.5 -26t25.5 -62t-25.5 -61.5t-61.5 -25.5t-61.5 25.5t-25.5 61.5zM1002 297q0 36 26 61.5t62 25.5t61.5 -25.5t25.5 -61.5t-25.5 -61.5t-61.5 -25.5t-62 25.5t-26 61.5zM1002 507q0 36 26 61.5t62 25.5t61.5 -25.5t25.5 -61.5t-25.5 -61.5t-61.5 -25.5t-62 25.5t-26 61.5
zM1002 717q0 36 26 61.5t62 25.5t61.5 -25.5t25.5 -61.5t-25.5 -61.5t-61.5 -25.5t-62 25.5t-26 61.5zM1002 927q0 36 26 61.5t62 25.5t61.5 -25.5t25.5 -61.5t-25.5 -62t-61.5 -26t-62 26t-26 62zM1002 1136q0 36 26 62t62 26t61.5 -26t25.5 -62t-25.5 -61.5t-61.5 -25.5
t-62 25.5t-26 61.5zM1002 1346q0 36 26 62t62 26t61.5 -26t25.5 -62t-25.5 -61.5t-61.5 -25.5t-62 25.5t-26 61.5z" />
    <glyph glyph-name="u" unicode="&#xfb;" 
d="M143 297q0 36 26 61.5t62 25.5t61.5 -25.5t25.5 -61.5t-25.5 -61.5t-61.5 -25.5t-62 25.5t-26 61.5zM143 507q0 36 26 61.5t62 25.5t61.5 -25.5t25.5 -61.5t-25.5 -61.5t-61.5 -25.5t-62 25.5t-26 61.5zM143 717q0 36 26 61.5t62 25.5t61.5 -25.5t25.5 -61.5t-25.5 -61.5
t-61.5 -25.5t-62 25.5t-26 61.5zM143 927q0 36 26 61.5t62 25.5t61.5 -25.5t25.5 -61.5t-25.5 -62t-61.5 -26t-62 26t-26 62zM143 1136q0 36 26 62t62 26t61.5 -26t25.5 -62t-25.5 -61.5t-61.5 -25.5t-62 25.5t-26 61.5zM143 1346q0 36 26 62t62 26t61.5 -26t25.5 -62
t-25.5 -61.5t-61.5 -25.5t-62 25.5t-26 61.5zM358 87q0 36 25.5 62t61.5 26t62 -26t26 -62t-26 -61.5t-62 -25.5t-61.5 25.5t-25.5 61.5zM573 87q0 36 25.5 62t61.5 26t61.5 -26t25.5 -62t-25.5 -61.5t-61.5 -25.5t-61.5 25.5t-25.5 61.5zM788 87q0 36 25.5 62t61.5 26
t61.5 -26t25.5 -62t-25.5 -61.5t-61.5 -25.5t-61.5 25.5t-25.5 61.5zM1002 297q0 36 26 61.5t62 25.5t61.5 -25.5t25.5 -61.5t-25.5 -61.5t-61.5 -25.5t-62 25.5t-26 61.5zM1002 507q0 36 26 61.5t62 25.5t61.5 -25.5t25.5 -61.5t-25.5 -61.5t-61.5 -25.5t-62 25.5t-26 61.5
zM1002 717q0 36 26 61.5t62 25.5t61.5 -25.5t25.5 -61.5t-25.5 -61.5t-61.5 -25.5t-62 25.5t-26 61.5zM1002 927q0 36 26 61.5t62 25.5t61.5 -25.5t25.5 -61.5t-25.5 -62t-61.5 -26t-62 26t-26 62zM1002 1136q0 36 26 62t62 26t61.5 -26t25.5 -62t-25.5 -61.5t-61.5 -25.5
t-62 25.5t-26 61.5zM1002 1346q0 36 26 62t62 26t61.5 -26t25.5 -62t-25.5 -61.5t-61.5 -25.5t-62 25.5t-26 61.5z" />
    <glyph glyph-name="u" unicode="&#xfa;" 
d="M143 297q0 36 26 61.5t62 25.5t61.5 -25.5t25.5 -61.5t-25.5 -61.5t-61.5 -25.5t-62 25.5t-26 61.5zM143 507q0 36 26 61.5t62 25.5t61.5 -25.5t25.5 -61.5t-25.5 -61.5t-61.5 -25.5t-62 25.5t-26 61.5zM143 717q0 36 26 61.5t62 25.5t61.5 -25.5t25.5 -61.5t-25.5 -61.5
t-61.5 -25.5t-62 25.5t-26 61.5zM143 927q0 36 26 61.5t62 25.5t61.5 -25.5t25.5 -61.5t-25.5 -62t-61.5 -26t-62 26t-26 62zM143 1136q0 36 26 62t62 26t61.5 -26t25.5 -62t-25.5 -61.5t-61.5 -25.5t-62 25.5t-26 61.5zM143 1346q0 36 26 62t62 26t61.5 -26t25.5 -62
t-25.5 -61.5t-61.5 -25.5t-62 25.5t-26 61.5zM358 87q0 36 25.5 62t61.5 26t62 -26t26 -62t-26 -61.5t-62 -25.5t-61.5 25.5t-25.5 61.5zM573 87q0 36 25.5 62t61.5 26t61.5 -26t25.5 -62t-25.5 -61.5t-61.5 -25.5t-61.5 25.5t-25.5 61.5zM788 87q0 36 25.5 62t61.5 26
t61.5 -26t25.5 -62t-25.5 -61.5t-61.5 -25.5t-61.5 25.5t-25.5 61.5zM1002 297q0 36 26 61.5t62 25.5t61.5 -25.5t25.5 -61.5t-25.5 -61.5t-61.5 -25.5t-62 25.5t-26 61.5zM1002 507q0 36 26 61.5t62 25.5t61.5 -25.5t25.5 -61.5t-25.5 -61.5t-61.5 -25.5t-62 25.5t-26 61.5
zM1002 717q0 36 26 61.5t62 25.5t61.5 -25.5t25.5 -61.5t-25.5 -61.5t-61.5 -25.5t-62 25.5t-26 61.5zM1002 927q0 36 26 61.5t62 25.5t61.5 -25.5t25.5 -61.5t-25.5 -62t-61.5 -26t-62 26t-26 62zM1002 1136q0 36 26 62t62 26t61.5 -26t25.5 -62t-25.5 -61.5t-61.5 -25.5
t-62 25.5t-26 61.5zM1002 1346q0 36 26 62t62 26t61.5 -26t25.5 -62t-25.5 -61.5t-61.5 -25.5t-62 25.5t-26 61.5z" />
    <glyph glyph-name="u" unicode="&#xf9;" 
d="M143 297q0 36 26 61.5t62 25.5t61.5 -25.5t25.5 -61.5t-25.5 -61.5t-61.5 -25.5t-62 25.5t-26 61.5zM143 507q0 36 26 61.5t62 25.5t61.5 -25.5t25.5 -61.5t-25.5 -61.5t-61.5 -25.5t-62 25.5t-26 61.5zM143 717q0 36 26 61.5t62 25.5t61.5 -25.5t25.5 -61.5t-25.5 -61.5
t-61.5 -25.5t-62 25.5t-26 61.5zM143 927q0 36 26 61.5t62 25.5t61.5 -25.5t25.5 -61.5t-25.5 -62t-61.5 -26t-62 26t-26 62zM143 1136q0 36 26 62t62 26t61.5 -26t25.5 -62t-25.5 -61.5t-61.5 -25.5t-62 25.5t-26 61.5zM143 1346q0 36 26 62t62 26t61.5 -26t25.5 -62
t-25.5 -61.5t-61.5 -25.5t-62 25.5t-26 61.5zM358 87q0 36 25.5 62t61.5 26t62 -26t26 -62t-26 -61.5t-62 -25.5t-61.5 25.5t-25.5 61.5zM573 87q0 36 25.5 62t61.5 26t61.5 -26t25.5 -62t-25.5 -61.5t-61.5 -25.5t-61.5 25.5t-25.5 61.5zM788 87q0 36 25.5 62t61.5 26
t61.5 -26t25.5 -62t-25.5 -61.5t-61.5 -25.5t-61.5 25.5t-25.5 61.5zM1002 297q0 36 26 61.5t62 25.5t61.5 -25.5t25.5 -61.5t-25.5 -61.5t-61.5 -25.5t-62 25.5t-26 61.5zM1002 507q0 36 26 61.5t62 25.5t61.5 -25.5t25.5 -61.5t-25.5 -61.5t-61.5 -25.5t-62 25.5t-26 61.5
zM1002 717q0 36 26 61.5t62 25.5t61.5 -25.5t25.5 -61.5t-25.5 -61.5t-61.5 -25.5t-62 25.5t-26 61.5zM1002 927q0 36 26 61.5t62 25.5t61.5 -25.5t25.5 -61.5t-25.5 -62t-61.5 -26t-62 26t-26 62zM1002 1136q0 36 26 62t62 26t61.5 -26t25.5 -62t-25.5 -61.5t-61.5 -25.5
t-62 25.5t-26 61.5zM1002 1346q0 36 26 62t62 26t61.5 -26t25.5 -62t-25.5 -61.5t-61.5 -25.5t-62 25.5t-26 61.5z" />
    <glyph glyph-name="v" unicode="v" 
d="M143 507q0 36 26 61.5t62 25.5t61.5 -25.5t25.5 -61.5t-25.5 -61.5t-61.5 -25.5t-62 25.5t-26 61.5zM143 717q0 36 26 61.5t62 25.5t61.5 -25.5t25.5 -61.5t-25.5 -61.5t-61.5 -25.5t-62 25.5t-26 61.5zM143 927q0 36 26 61.5t62 25.5t61.5 -25.5t25.5 -61.5t-25.5 -62
t-61.5 -26t-62 26t-26 62zM143 1136q0 36 26 62t62 26t61.5 -26t25.5 -62t-25.5 -61.5t-61.5 -25.5t-62 25.5t-26 61.5zM143 1346q0 36 26 62t62 26t61.5 -26t25.5 -62t-25.5 -61.5t-61.5 -25.5t-62 25.5t-26 61.5zM358 297q0 36 25.5 61.5t61.5 25.5t62 -25.5t26 -61.5
t-26 -61.5t-62 -25.5t-61.5 25.5t-25.5 61.5zM573 87q0 36 25.5 62t61.5 26t61.5 -26t25.5 -62t-25.5 -61.5t-61.5 -25.5t-61.5 25.5t-25.5 61.5zM788 297q0 36 25.5 61.5t61.5 25.5t61.5 -25.5t25.5 -61.5t-25.5 -61.5t-61.5 -25.5t-61.5 25.5t-25.5 61.5zM1002 507
q0 36 26 61.5t62 25.5t61.5 -25.5t25.5 -61.5t-25.5 -61.5t-61.5 -25.5t-62 25.5t-26 61.5zM1002 717q0 36 26 61.5t62 25.5t61.5 -25.5t25.5 -61.5t-25.5 -61.5t-61.5 -25.5t-62 25.5t-26 61.5zM1002 927q0 36 26 61.5t62 25.5t61.5 -25.5t25.5 -61.5t-25.5 -62t-61.5 -26
t-62 26t-26 62zM1002 1136q0 36 26 62t62 26t61.5 -26t25.5 -62t-25.5 -61.5t-61.5 -25.5t-62 25.5t-26 61.5zM1002 1346q0 36 26 62t62 26t61.5 -26t25.5 -62t-25.5 -61.5t-61.5 -25.5t-62 25.5t-26 61.5z" />
    <glyph glyph-name="w" unicode="w" 
d="M143 87q0 36 26 62t62 26t61.5 -26t25.5 -62t-25.5 -61.5t-61.5 -25.5t-62 25.5t-26 61.5zM143 297q0 36 26 61.5t62 25.5t61.5 -25.5t25.5 -61.5t-25.5 -61.5t-61.5 -25.5t-62 25.5t-26 61.5zM143 507q0 36 26 61.5t62 25.5t61.5 -25.5t25.5 -61.5t-25.5 -61.5
t-61.5 -25.5t-62 25.5t-26 61.5zM143 717q0 36 26 61.5t62 25.5t61.5 -25.5t25.5 -61.5t-25.5 -61.5t-61.5 -25.5t-62 25.5t-26 61.5zM143 927q0 36 26 61.5t62 25.5t61.5 -25.5t25.5 -61.5t-25.5 -62t-61.5 -26t-62 26t-26 62zM143 1136q0 36 26 62t62 26t61.5 -26
t25.5 -62t-25.5 -61.5t-61.5 -25.5t-62 25.5t-26 61.5zM143 1346q0 36 26 62t62 26t61.5 -26t25.5 -62t-25.5 -61.5t-61.5 -25.5t-62 25.5t-26 61.5zM358 297q0 36 25.5 61.5t61.5 25.5t62 -25.5t26 -61.5t-26 -61.5t-62 -25.5t-61.5 25.5t-25.5 61.5zM573 507
q0 36 25.5 61.5t61.5 25.5t61.5 -25.5t25.5 -61.5t-25.5 -61.5t-61.5 -25.5t-61.5 25.5t-25.5 61.5zM573 717q0 36 25.5 61.5t61.5 25.5t61.5 -25.5t25.5 -61.5t-25.5 -61.5t-61.5 -25.5t-61.5 25.5t-25.5 61.5zM788 297q0 36 25.5 61.5t61.5 25.5t61.5 -25.5t25.5 -61.5
t-25.5 -61.5t-61.5 -25.5t-61.5 25.5t-25.5 61.5zM1002 87q0 36 26 62t62 26t61.5 -26t25.5 -62t-25.5 -61.5t-61.5 -25.5t-62 25.5t-26 61.5zM1002 297q0 36 26 61.5t62 25.5t61.5 -25.5t25.5 -61.5t-25.5 -61.5t-61.5 -25.5t-62 25.5t-26 61.5zM1002 507q0 36 26 61.5
t62 25.5t61.5 -25.5t25.5 -61.5t-25.5 -61.5t-61.5 -25.5t-62 25.5t-26 61.5zM1002 717q0 36 26 61.5t62 25.5t61.5 -25.5t25.5 -61.5t-25.5 -61.5t-61.5 -25.5t-62 25.5t-26 61.5zM1002 927q0 36 26 61.5t62 25.5t61.5 -25.5t25.5 -61.5t-25.5 -62t-61.5 -26t-62 26t-26 62
zM1002 1136q0 36 26 62t62 26t61.5 -26t25.5 -62t-25.5 -61.5t-61.5 -25.5t-62 25.5t-26 61.5zM1002 1346q0 36 26 62t62 26t61.5 -26t25.5 -62t-25.5 -61.5t-61.5 -25.5t-62 25.5t-26 61.5z" />
    <glyph glyph-name="x" unicode="x" 
d="M143 87q0 36 26 62t62 26t61.5 -26t25.5 -62t-25.5 -61.5t-61.5 -25.5t-62 25.5t-26 61.5zM143 297q0 36 26 61.5t62 25.5t61.5 -25.5t25.5 -61.5t-25.5 -61.5t-61.5 -25.5t-62 25.5t-26 61.5zM143 1136q0 36 26 62t62 26t61.5 -26t25.5 -62t-25.5 -61.5t-61.5 -25.5
t-62 25.5t-26 61.5zM143 1346q0 36 26 62t62 26t61.5 -26t25.5 -62t-25.5 -61.5t-61.5 -25.5t-62 25.5t-26 61.5zM358 507q0 36 25.5 61.5t61.5 25.5t62 -25.5t26 -61.5t-26 -61.5t-62 -25.5t-61.5 25.5t-25.5 61.5zM358 927q0 36 25.5 61.5t61.5 25.5t62 -25.5t26 -61.5
t-26 -62t-62 -26t-61.5 26t-25.5 62zM573 717q0 36 25.5 61.5t61.5 25.5t61.5 -25.5t25.5 -61.5t-25.5 -61.5t-61.5 -25.5t-61.5 25.5t-25.5 61.5zM788 507q0 36 25.5 61.5t61.5 25.5t61.5 -25.5t25.5 -61.5t-25.5 -61.5t-61.5 -25.5t-61.5 25.5t-25.5 61.5zM788 927
q0 36 25.5 61.5t61.5 25.5t61.5 -25.5t25.5 -61.5t-25.5 -62t-61.5 -26t-61.5 26t-25.5 62zM1002 87q0 36 26 62t62 26t61.5 -26t25.5 -62t-25.5 -61.5t-61.5 -25.5t-62 25.5t-26 61.5zM1002 297q0 36 26 61.5t62 25.5t61.5 -25.5t25.5 -61.5t-25.5 -61.5t-61.5 -25.5
t-62 25.5t-26 61.5zM1002 1136q0 36 26 62t62 26t61.5 -26t25.5 -62t-25.5 -61.5t-61.5 -25.5t-62 25.5t-26 61.5zM1002 1346q0 36 26 62t62 26t61.5 -26t25.5 -62t-25.5 -61.5t-61.5 -25.5t-62 25.5t-26 61.5z" />
    <glyph glyph-name="y" unicode="y" 
d="M143 927q0 36 26 61.5t62 25.5t61.5 -25.5t25.5 -61.5t-25.5 -62t-61.5 -26t-62 26t-26 62zM143 1136q0 36 26 62t62 26t61.5 -26t25.5 -62t-25.5 -61.5t-61.5 -25.5t-62 25.5t-26 61.5zM143 1346q0 36 26 62t62 26t61.5 -26t25.5 -62t-25.5 -61.5t-61.5 -25.5t-62 25.5
t-26 61.5zM358 717q0 36 25.5 61.5t61.5 25.5t62 -25.5t26 -61.5t-26 -61.5t-62 -25.5t-61.5 25.5t-25.5 61.5zM573 87q0 36 25.5 62t61.5 26t61.5 -26t25.5 -62t-25.5 -61.5t-61.5 -25.5t-61.5 25.5t-25.5 61.5zM573 297q0 36 25.5 61.5t61.5 25.5t61.5 -25.5t25.5 -61.5
t-25.5 -61.5t-61.5 -25.5t-61.5 25.5t-25.5 61.5zM573 507q0 36 25.5 61.5t61.5 25.5t61.5 -25.5t25.5 -61.5t-25.5 -61.5t-61.5 -25.5t-61.5 25.5t-25.5 61.5zM788 717q0 36 25.5 61.5t61.5 25.5t61.5 -25.5t25.5 -61.5t-25.5 -61.5t-61.5 -25.5t-61.5 25.5t-25.5 61.5z
M1002 927q0 36 26 61.5t62 25.5t61.5 -25.5t25.5 -61.5t-25.5 -62t-61.5 -26t-62 26t-26 62zM1002 1136q0 36 26 62t62 26t61.5 -26t25.5 -62t-25.5 -61.5t-61.5 -25.5t-62 25.5t-26 61.5zM1002 1346q0 36 26 62t62 26t61.5 -26t25.5 -62t-25.5 -61.5t-61.5 -25.5t-62 25.5
t-26 61.5z" />
    <glyph glyph-name="y" unicode="&#xfd;" 
d="M143 927q0 36 26 61.5t62 25.5t61.5 -25.5t25.5 -61.5t-25.5 -62t-61.5 -26t-62 26t-26 62zM143 1136q0 36 26 62t62 26t61.5 -26t25.5 -62t-25.5 -61.5t-61.5 -25.5t-62 25.5t-26 61.5zM143 1346q0 36 26 62t62 26t61.5 -26t25.5 -62t-25.5 -61.5t-61.5 -25.5t-62 25.5
t-26 61.5zM358 717q0 36 25.5 61.5t61.5 25.5t62 -25.5t26 -61.5t-26 -61.5t-62 -25.5t-61.5 25.5t-25.5 61.5zM573 87q0 36 25.5 62t61.5 26t61.5 -26t25.5 -62t-25.5 -61.5t-61.5 -25.5t-61.5 25.5t-25.5 61.5zM573 297q0 36 25.5 61.5t61.5 25.5t61.5 -25.5t25.5 -61.5
t-25.5 -61.5t-61.5 -25.5t-61.5 25.5t-25.5 61.5zM573 507q0 36 25.5 61.5t61.5 25.5t61.5 -25.5t25.5 -61.5t-25.5 -61.5t-61.5 -25.5t-61.5 25.5t-25.5 61.5zM788 717q0 36 25.5 61.5t61.5 25.5t61.5 -25.5t25.5 -61.5t-25.5 -61.5t-61.5 -25.5t-61.5 25.5t-25.5 61.5z
M1002 927q0 36 26 61.5t62 25.5t61.5 -25.5t25.5 -61.5t-25.5 -62t-61.5 -26t-62 26t-26 62zM1002 1136q0 36 26 62t62 26t61.5 -26t25.5 -62t-25.5 -61.5t-61.5 -25.5t-62 25.5t-26 61.5zM1002 1346q0 36 26 62t62 26t61.5 -26t25.5 -62t-25.5 -61.5t-61.5 -25.5t-62 25.5
t-26 61.5z" />
    <glyph glyph-name="z" unicode="z" 
d="M143 87q0 36 26 62t62 26t61.5 -26t25.5 -62t-25.5 -61.5t-61.5 -25.5t-62 25.5t-26 61.5zM143 297q0 36 26 61.5t62 25.5t61.5 -25.5t25.5 -61.5t-25.5 -61.5t-61.5 -25.5t-62 25.5t-26 61.5zM143 1346q0 36 26 62t62 26t61.5 -26t25.5 -62t-25.5 -61.5t-61.5 -25.5
t-62 25.5t-26 61.5zM358 87q0 36 25.5 62t61.5 26t62 -26t26 -62t-26 -61.5t-62 -25.5t-61.5 25.5t-25.5 61.5zM358 507q0 36 25.5 61.5t61.5 25.5t62 -25.5t26 -61.5t-26 -61.5t-62 -25.5t-61.5 25.5t-25.5 61.5zM358 1346q0 36 25.5 62t61.5 26t62 -26t26 -62t-26 -61.5
t-62 -25.5t-61.5 25.5t-25.5 61.5zM573 87q0 36 25.5 62t61.5 26t61.5 -26t25.5 -62t-25.5 -61.5t-61.5 -25.5t-61.5 25.5t-25.5 61.5zM573 717q0 36 25.5 61.5t61.5 25.5t61.5 -25.5t25.5 -61.5t-25.5 -61.5t-61.5 -25.5t-61.5 25.5t-25.5 61.5zM573 1346q0 36 25.5 62
t61.5 26t61.5 -26t25.5 -62t-25.5 -61.5t-61.5 -25.5t-61.5 25.5t-25.5 61.5zM788 87q0 36 25.5 62t61.5 26t61.5 -26t25.5 -62t-25.5 -61.5t-61.5 -25.5t-61.5 25.5t-25.5 61.5zM788 927q0 36 25.5 61.5t61.5 25.5t61.5 -25.5t25.5 -61.5t-25.5 -62t-61.5 -26t-61.5 26
t-25.5 62zM788 1346q0 36 25.5 62t61.5 26t61.5 -26t25.5 -62t-25.5 -61.5t-61.5 -25.5t-61.5 25.5t-25.5 61.5zM1002 87q0 36 26 62t62 26t61.5 -26t25.5 -62t-25.5 -61.5t-61.5 -25.5t-62 25.5t-26 61.5zM1002 1136q0 36 26 62t62 26t61.5 -26t25.5 -62t-25.5 -61.5
t-61.5 -25.5t-62 25.5t-26 61.5zM1002 1346q0 36 26 62t62 26t61.5 -26t25.5 -62t-25.5 -61.5t-61.5 -25.5t-62 25.5t-26 61.5z" />
    <glyph glyph-name="uni00A0" unicode="&#xa0;" horiz-adv-x="897" 
 />
    <glyph glyph-name="uni00AD" unicode="&#xad;" horiz-adv-x="0" 
 />
    <glyph glyph-name="uni2000" unicode="&#x2000;" horiz-adv-x="824" 
 />
    <glyph glyph-name="uni2001" unicode="&#x2001;" horiz-adv-x="1648" 
 />
    <glyph glyph-name="uni2002" unicode="&#x2002;" horiz-adv-x="824" 
 />
    <glyph glyph-name="uni2003" unicode="&#x2003;" horiz-adv-x="1648" 
 />
    <glyph glyph-name="uni2004" unicode="&#x2004;" horiz-adv-x="549" 
 />
    <glyph glyph-name="uni2005" unicode="&#x2005;" horiz-adv-x="412" 
 />
    <glyph glyph-name="uni2006" unicode="&#x2006;" horiz-adv-x="274" 
 />
    <glyph glyph-name="uni2007" unicode="&#x2007;" horiz-adv-x="274" 
 />
    <glyph glyph-name="uni2008" unicode="&#x2008;" horiz-adv-x="206" 
 />
    <glyph glyph-name="uni2009" unicode="&#x2009;" horiz-adv-x="329" 
 />
    <glyph glyph-name="uni200A" unicode="&#x200a;" horiz-adv-x="91" 
 />
    <glyph glyph-name="uni2010" unicode="&#x2010;" horiz-adv-x="1300" 
d="M143 753q0 36 26 61.5t62 25.5t61.5 -25.5t25.5 -61.5t-25.5 -61.5t-61.5 -25.5t-62 25.5t-26 61.5zM353 753q0 36 25.5 61.5t61.5 25.5t62 -25.5t26 -61.5t-26 -61.5t-62 -25.5t-61.5 25.5t-25.5 61.5zM563 753q0 36 25.5 61.5t61.5 25.5t62 -25.5t26 -61.5t-26 -61.5
t-62 -25.5t-61.5 25.5t-25.5 61.5zM773 753q0 36 25.5 61.5t61.5 25.5t61.5 -25.5t25.5 -61.5t-25.5 -61.5t-61.5 -25.5t-61.5 25.5t-25.5 61.5zM983 753q0 36 25.5 61.5t61.5 25.5t61.5 -25.5t25.5 -61.5t-25.5 -61.5t-61.5 -25.5t-61.5 25.5t-25.5 61.5z" />
    <glyph glyph-name="uni2011" unicode="&#x2011;" horiz-adv-x="1300" 
d="M143 753q0 36 26 61.5t62 25.5t61.5 -25.5t25.5 -61.5t-25.5 -61.5t-61.5 -25.5t-62 25.5t-26 61.5zM353 753q0 36 25.5 61.5t61.5 25.5t62 -25.5t26 -61.5t-26 -61.5t-62 -25.5t-61.5 25.5t-25.5 61.5zM563 753q0 36 25.5 61.5t61.5 25.5t62 -25.5t26 -61.5t-26 -61.5
t-62 -25.5t-61.5 25.5t-25.5 61.5zM773 753q0 36 25.5 61.5t61.5 25.5t61.5 -25.5t25.5 -61.5t-25.5 -61.5t-61.5 -25.5t-61.5 25.5t-25.5 61.5zM983 753q0 36 25.5 61.5t61.5 25.5t61.5 -25.5t25.5 -61.5t-25.5 -61.5t-61.5 -25.5t-61.5 25.5t-25.5 61.5z" />
    <glyph glyph-name="figuredash" unicode="&#x2012;" horiz-adv-x="1300" 
d="M143 753q0 36 26 61.5t62 25.5t61.5 -25.5t25.5 -61.5t-25.5 -61.5t-61.5 -25.5t-62 25.5t-26 61.5zM353 753q0 36 25.5 61.5t61.5 25.5t62 -25.5t26 -61.5t-26 -61.5t-62 -25.5t-61.5 25.5t-25.5 61.5zM563 753q0 36 25.5 61.5t61.5 25.5t62 -25.5t26 -61.5t-26 -61.5
t-62 -25.5t-61.5 25.5t-25.5 61.5zM773 753q0 36 25.5 61.5t61.5 25.5t61.5 -25.5t25.5 -61.5t-25.5 -61.5t-61.5 -25.5t-61.5 25.5t-25.5 61.5zM983 753q0 36 25.5 61.5t61.5 25.5t61.5 -25.5t25.5 -61.5t-25.5 -61.5t-61.5 -25.5t-61.5 25.5t-25.5 61.5z" />
    <glyph glyph-name="endash" unicode="&#x2013;" horiz-adv-x="1310" 
d="M143 753q0 36 26.5 61.5t62.5 25.5t62 -25.5t26 -61.5t-26 -61.5t-62 -25.5t-62.5 25.5t-26.5 61.5zM355 753q0 36 26 61.5t62 25.5t62.5 -25.5t26.5 -61.5t-26.5 -61.5t-62.5 -25.5t-62 25.5t-26 61.5zM567 753q0 36 26 61.5t62 25.5t62.5 -25.5t26.5 -61.5t-26.5 -61.5
t-62.5 -25.5t-62 25.5t-26 61.5zM779 753q0 36 26 61.5t62 25.5t62 -25.5t26 -61.5t-26 -61.5t-62 -25.5t-62 25.5t-26 61.5zM991 753q0 36 26 61.5t62 25.5t62 -25.5t26 -61.5t-26 -61.5t-62 -25.5t-62 25.5t-26 61.5z" />
    <glyph glyph-name="emdash" unicode="&#x2014;" horiz-adv-x="2334" 
d="M143 753q0 36 52.5 61.5t125 25.5t124 -25.5t51.5 -61.5t-51.5 -61.5t-124 -25.5t-125 25.5t-52.5 61.5zM567 753q0 36 51.5 61.5t124.5 25.5t125.5 -25.5t52.5 -61.5t-52.5 -61.5t-125.5 -25.5t-124.5 25.5t-51.5 61.5zM991 753q0 36 51.5 61.5t124.5 25.5t125.5 -25.5
t52.5 -61.5t-52.5 -61.5t-125.5 -25.5t-124.5 25.5t-51.5 61.5zM1415 753q0 36 51.5 61.5t124.5 25.5t124.5 -25.5t51.5 -61.5t-51.5 -61.5t-124.5 -25.5t-124.5 25.5t-51.5 61.5zM1840 753q0 36 51.5 61.5t124 25.5t124 -25.5t51.5 -61.5t-51.5 -61.5t-124 -25.5t-124 25.5
t-51.5 61.5z" />
    <glyph glyph-name="uni202F" unicode="&#x202f;" horiz-adv-x="329" 
 />
    <glyph glyph-name="uni205F" unicode="&#x205f;" horiz-adv-x="412" 
 />
    <glyph glyph-name="uni25FC" unicode="&#x25fc;" horiz-adv-x="1433" 
d="M0 0v1434h1434v-1434h-1434z" />
  </font>
</defs>
</svg>
